Важное объявление!
У Нас Все раздачи мультитрекерные, при нуле пиров в релизах, можете смело вставать на закачку!
 
Автор Сообщение

HUNTER

Стаж:
4 года 4 месяца
Сообщений:
56808

Репутация: 101

[+] [-]
Вне форума [Профиль] [ЛС]

Пост №1. Неизвестный солдат
Год выпуска: 2007
Страна: Россия
Жанр: Документальный
Продолжительность: 00:44:11
Перевод: Не требуется
Русские субтитры: нет
Режиссер: Олег Моросеев, Алексей Китайцев
Описание: Это памятник не всем, а КАЖДОМУ!Вечный огонь в Александровском саду в Москве на протяжении долгого времени является символом памяти людей нашей страны о подвиге героев, павших в боях Великой Отечественной войны. Он горит всего несколько десятилетий, с 8 мая 1967 года, а кажется, что он был всегда. Неизвестные факты об одном из самых известных мест в России. Зрители узнают историю возникновения идеи памятника "Могила Неизвестного Солдата" в Александровском саду в Москве. Авторы фильма поведают, где и как были найдены останки того человека, который лежит под мраморной плитой у Кремлевской стены; кем были архитекторы, создавшие надгробие; кто придумал надпись на мемориале; как звали конструктора уникальной системы газовых горелок Вечного огня, а также - когда, как и откуда были доставлены в Москву "неизвестный солдат" и факел с Вечным огнем. В фильме принимают участие Сергей Михалков, Олег Басилашвили, журналист Галина Шергова и другие. Авторы сценария: Дмитрий Минченок, Ольга Булле
Доп. информация: Релиз -

Рип чистый. Без посторонних надписей. Выкладывается как есть.
Качество: DVB
Формат: MPG
Видео кодек: MPG2
Аудио кодек: MP2
Видео: 720x576 @ 768x576 (4:3) 25.00fps 5 805 Kbps, 0.560 bit/pixel
Аудио: MPEG Audio 48000Hz 2 channels 192 Кбит/сек

Скриншоты


Скринлист

MI

GeneralComplete name : J:\ВЫКЛАДКА\DVB\01 - ДОКУМЕНТАЛЬНОЕ\Пост номер один. Неизвестный солдат (2007, Докуменатльный) (MYDIMKA).mpgFormat : MPEG-PSFile size : 1.89 GiBDuration : 44mn 11sOverall bit rate mode : VariableOverall bit rate : 6 118 Kbps
VideoID : 224 (0xE0)Format : MPEG VideoFormat version : Version 2Format profile : Main@MainFormat settings, BVOP : YesFormat settings, Matrix : CustomFormat settings, GOP : VariableDuration : 44mn 11sBit rate mode : VariableBit rate : 5 804 KbpsMaximum bit rate : 15.0 MbpsWidth : 720 pixelsHeight : 576 pixelsDisplay aspect ratio : 4:3Frame rate : 25.000 fpsStandard : PALColor space : YUVChroma subsampling : 4:2:0Bit depth : 8 bitsScan type : InterlacedScan order : Top Field FirstCompression mode : LossyBits/(Pixel*Frame) : 0.560Time code of first frame : 00:00:00:00Time code source : Group of pictures headerStream size : 1.79 GiB (95%)
AudioID : 192 (0xC0)Format : MPEG AudioFormat version : Version 1Format profile : Layer 2Duration : 44mn 11sBit rate mode : ConstantBit rate : 192 KbpsChannel(s) : 2 channelsSampling rate : 48.0 KHzCompression mode : LossyDelay relative to video : -6msStream size : 60.7 MiB (3%)

_________________
Показать сообщения:    

Текущее время: Сегодня 12:57

Часовой пояс: GMT



Вы не можете начинать темы
Вы не можете отвечать на сообщения
Вы не можете редактировать свои сообщения
Вы не можете удалять свои сообщения
Вы не можете голосовать в опросах
Вы не можете прикреплять файлы к сообщениям
Вы не можете скачивать файлы