Важное объявление!
У Нас Все раздачи мультитрекерные, при нуле пиров в релизах, можете смело вставать на закачку!
 
Автор Сообщение

HUNTER

Стаж:
4 года 4 месяца
Сообщений:
56853

Репутация: 101

[+] [-]
Вне форума [Профиль] [ЛС]

Последняя любовь мистера Моргана / Mr. Morgan's Last Love
Страна: Германия, Бельгия, США, Франция
Студия: Bavaria Pictures GmbH, Kaminski.Stiehm.Film GmbH...
Жанр: драма
Год выпуска: 2013
Продолжительность: 01:55:48
Перевод: Профессиональный (дублированный) R5
Cубтитры: русские(forced,full)английские(full,SDH)
Оригинальная аудиодорожка: английский
Режиссер: Сандра Неттельбек / Sandra Nettelbeck
В ролях: Майкл Кейн, Клеманс Поэзи, Джиллиан Андерсон, Джастин Кирк, Джейн Александр, Ричард Хоуп, Аликс Пуасон, Анн Альваро, Кристель Корнил, Янник Шуара
Описание: Пожилой американский профессор Мэтью Морган одиноко и замкнуто живет в Париже, преподает философию в университете. Жена, которую он очень любил, умерла несколько лет назад. Кажется, что всё главное в его жизни осталось в прошлом. Так и было, пока однажды в автобусе ему, едва не упавшему, не протянула руку помощи Полин, молодая, открытая, веселая парижанка…

Тип релиза: BDRip 720p[CtrlHD]
Контейнер: MKV
Видео: AVC, 1280x690, 8320kbps, 23.976 fps
Аудио 1: Russian: 48 kHz, AC3, 3/2 (L,C,R,l,r) + LFE ch, ~384.00 kbps avg |R5|
Аудио 2: English: 48 kHz, AC3, 3/2 (L,C,R,l,r) + LFE ch, ~640.00 kbps |Original|
Чаптеры:есть

x264 log

x264 [info]: profile High, level 4.1
x264 [info]: frame I:996 Avg QP:16.62 size:154081
x264 [info]: frame P:32738 Avg QP:17.58 size: 69118
x264 [info]: frame B:132870 Avg QP:19.99 size: 36170
x264 [info]: consecutive B-frames: 2.3% 1.9% 4.9% 5.8% 12.2% 56.9% 6.3% 3.
1% 6.5%
x264 [info]: mb I I16..4: 6.0% 82.5% 11.5%
x264 [info]: mb P I16..4: 0.4% 18.5% 0.8% P16..4: 27.9% 35.4% 16.3% 0.0% 0
.0% skip: 0.7%
x264 [info]: mb B I16..4: 0.1% 5.1% 0.1% B16..8: 36.8% 22.5% 6.6% direct:
8.3% skip:20.5% L0:49.5% L1:42.5% BI: 7.9%
x264 [info]: 8x8 transform intra:94.3% inter:60.1%
x264 [info]: direct mvs spatial:98.0% temporal:2.0%
x264 [info]: coded y,uvDC,uvAC intra: 96.5% 94.2% 86.7% inter: 43.6% 39.1% 20.0%
x264 [info]: i16 v,h,dc,p: 50% 17% 9% 24%
x264 [info]: i8 v,h,dc,ddl,ddr,vr,hd,vl,hu: 10% 6% 15% 10% 13% 12% 11% 11% 11%
x264 [info]: i4 v,h,dc,ddl,ddr,vr,hd,vl,hu: 40% 6% 5% 7% 9% 10% 8% 8% 8%
x264 [info]: i8c dc,h,v,p: 57% 15% 14% 14%
x264 [info]: Weighted P-Frames: Y:3.2% UV:1.4%
x264 [info]: ref P L0: 37.4% 7.0% 20.8% 8.0% 8.2% 5.5% 6.0% 3.0% 3.5% 0.
5% 0.0%
x264 [info]: ref B L0: 56.5% 16.3% 10.0% 5.8% 4.5% 4.1% 2.2% 0.7%
x264 [info]: ref B L1: 88.2% 11.8%
x264 [info]: kb/s:8314.69

MediaInfo

General
Unique ID : 219402777763448804229205160151659846090 (0xA50F701DFDDD6193B0CF09F78CB419CA)
Complete name : D:\Mr.Morgan's.Last.Love.2013.720p.BluRay.DD5.1.x264-Talian-.mkv
Format : Matroska
Format version : Version 2
File size : 7.56 GiB
Duration : 1h 55mn
Overall bit rate : 9 341 Kbps
Movie name : -Talian-
Encoded date : UTC 2014-09-17 12:58:20
Writing application : mkvmerge v5.7.0 ('The Whirlwind') built on Jul 8 2012 20:08:51
Writing library : libebml v1.2.3 + libmatroska v1.3.0
Video
ID : 1
Format : AVC
Format/Info : Advanced Video Codec
Format profile : High@L4.1
Format settings, CABAC : Yes
Format settings, ReFrames : 9 frames
Codec ID : V_MPEG4/ISO/AVC
Duration : 1h 55mn
Bit rate : 8 320 Kbps
Width : 1 280 pixels
Height : 690 pixels
Display aspect ratio : 1.855
Frame rate : 23.976 fps
Color space : YUV
Chroma subsampling : 4:2:0
Bit depth : 8 bits
Scan type : Progressive
Bits/(Pixel*Frame) : 0.393
Stream size : 6.58 GiB (87%)
Title : CtrlHD
Writing library : x264 core 133 r2334 a3ac64b
Encoding settings : cabac=1 / ref=9 / deblock=1:-3:-3 / analyse=0x3:0x113 / me=tesa / subme=11 / psy=1 / psy_rd=1.15:0.05 / mixed_ref=1 / me_range=32 / chroma_me=1 / trellis=2 / 8x8dct=1 / cqm=0 / deadzone=21,11 / fast_pskip=0 / chroma_qp_offset=-5 / threads=12 / lookahead_threads=2 / sliced_threads=0 / nr=0 / decimate=0 / interlaced=0 / bluray_compat=0 / constrained_intra=0 / bframes=8 / b_pyramid=2 / b_adapt=2 / b_bias=0 / direct=3 / weightb=1 / open_gop=0 / weightp=2 / keyint=250 / keyint_min=23 / scenecut=40 / intra_refresh=0 / rc=2pass / mbtree=0 / bitrate=8320 / ratetol=1.0 / qcomp=0.70 / qpmin=0 / qpmax=69 / qpstep=4 / cplxblur=20.0 / qblur=0.5 / ip_ratio=1.20 / pb_ratio=1.30 / aq=1:0.85
Language : English
Default : Yes
Forced : No
Audio #1
ID : 2
Format : AC-3
Format/Info : Audio Coding 3
Mode extension : CM (complete main)
Format settings, Endianness : Big
Codec ID : A_AC3
Duration : 1h 55mn
Bit rate mode : Constant
Bit rate : 384 Kbps
Channel(s) : 6 channels
Channel positions : Front: L C R, Side: L R, LFE
Sampling rate : 48.0 KHz
Bit depth : 16 bits
Compression mode : Lossy
Stream size : 318 MiB (4%)
Title : DUB- R5
Language : Russian
Default : Yes
Forced : No
Audio #2
ID : 3
Format : AC-3
Format/Info : Audio Coding 3
Mode extension : CM (complete main)
Format settings, Endianness : Big
Codec ID : A_AC3
Duration : 1h 55mn
Bit rate mode : Constant
Bit rate : 640 Kbps
Channel(s) : 6 channels
Channel positions : Front: L C R, Side: L R, LFE
Sampling rate : 48.0 KHz
Bit depth : 16 bits
Compression mode : Lossy
Stream size : 530 MiB (7%)
Title : Original
Language : English
Default : No
Forced : No
Text #1
ID : 4
Format : UTF-8
Codec ID : S_TEXT/UTF8
Codec ID/Info : UTF-8 Plain Text
Title : Sub-forced
Language : Russian
Default : Yes
Forced : No
Text #2
ID : 5
Format : UTF-8
Codec ID : S_TEXT/UTF8
Codec ID/Info : UTF-8 Plain Text
Title : Sub
Language : Russian
Default : No
Forced : No
Text #3
ID : 6
Format : UTF-8
Codec ID : S_TEXT/UTF8
Codec ID/Info : UTF-8 Plain Text
Title : Sub-full
Language : English
Default : No
Forced : No
Text #4
ID : 7
Format : UTF-8
Codec ID : S_TEXT/UTF8
Codec ID/Info : UTF-8 Plain Text
Title : Sub-SDH
Language : English
Default : No
Forced : No
Menu
00:00:00.000 : en:00:00:00.000
00:10:54.779 : en:00:10:54.779
00:21:41.216 : en:00:21:41.216
00:32:45.463 : en:00:32:45.463
00:44:47.434 : en:00:44:47.434
00:57:20.353 : en:00:57:20.353
01:14:42.811 : en:01:14:42.811
01:30:02.688 : en:01:30:02.688
01:34:42.051 : en:01:34:42.051
01:42:04.118 : en:01:42:04.118
01:47:03.250 : en:01:47:03.250
01:50:38.715 : en:01:50:38.715
01:55:48.775 : en:01:55:48.775

Скриншоты

Sourcevs.CtrlHDvs.ROVERS



_________________
Показать сообщения:    

Текущее время: Сегодня 15:18

Часовой пояс: GMT



Вы не можете начинать темы
Вы не можете отвечать на сообщения
Вы не можете редактировать свои сообщения
Вы не можете удалять свои сообщения
Вы не можете голосовать в опросах
Вы не можете прикреплять файлы к сообщениям
Вы не можете скачивать файлы
Наши партнеры: интернет магазин Ивановского трикотажа textilla.ru