Важное объявление!
У Нас Все раздачи мультитрекерные, при нуле пиров в релизах, можете смело вставать на закачку!
 
Автор Сообщение

mihis

[Профиль] [ЛС]

Последняя война / To End All Wars
«Какова цена свободы?»

Год выпуска: 2001
Страна: Великобритания, США, Таиланд, Argyll Film Partners, Gummshoe Productions, Integrity Partners, Pray For Rain Pictures Inc.
Жанр: Военный, драма, боевик
Продолжительность: 02:01:18
Перевод: Профессиональный (многоголосый, закадровый) + Оригинал
Субтитры: Русские, английские
Режиссер: Дэвид Л. Каннингхэм
В ролях: Роберт Карлайл, Кифер Сазерленд, Киран МакМенамин, Джеймс Космо, Масаюки Йуи, Джон Грегг, Шу Накаджима, Грег Эллис, Пип Торренс, Брендан Коуэлл, Адам Синклер, Серджо Джонс, Джонатан Чапман, Уинтон Николсон, Трэйси Андерсон, Маса Каноме, Ник Мини, Тедди Сирс
Описание: Во время Второй мировой войны шотландский Аргайлский полк почти в полном составе, включая подполковника Маклина, майора Кэмпбелла, капитана Гордона и прикомандированного лейтенанта американской армии Риардона, оказался в японском плену и был отправлен в концлагерь, расположенный посреди непроходимых джунглей.
Японцы, считающие военнопленных недостойными жизни трусами, требуют беспрекословного подчинения. Те, кто откажется строить стратегическую железную дорогу через джунгли, будут казнены, как подполковник Маклин.
Принявший командование майор Кэмпбелл, несмотря на то, что его солдаты измучены голодом, болезнями и непосильным трудом, считает единственным достойным выходом восстание и побег…

Качество: HDTVRip-AVC
Формат: MKV
Видео кодек: H.264
Аудио кодек: AC3
Видео: AVC, 1280x720 (16:9), 23.976 fps, 3 861 Kbps (0.175 bit/pixel)
Аудио #1: AC3, 48.0 KHz, 6 ch, 448 Kbps, CBR MVO
Аудио #2: AC3, 48.0 KHz, 6 ch, 384 Kbps, CBR Eng

MediaInfo

Общее
Уникальный идентификатор : 194562191247165707347550923725695425586 (0x925F50A4F1C1D96C8AB38CF5BDD51C32)
Полное имя : D:\Video\To End All Wars.mkv
Формат : Matroska
Версия формата : Version 4 / Version 2
Размер файла : 4,06 Гбайт
Продолжительность : 2 ч. 1 м.
Общий поток : 4788 Кбит/сек
Дата кодирования : UTC 2013-09-11 12:23:56
Программа кодирования : mkvmerge v6.2.0 ('Promised Land') built on Apr 28 2013 12:22:01
Библиотека кодирования : libebml v1.3.0 + libmatroska v1.4.0
Видео
Идентификатор : 1
Формат : AVC
Формат/Информация : Advanced Video Codec
Профиль формата : High@L3.1
Параметр CABAC формата : Нет
Параметр ReFrames формата : 2 кадра
Идентификатор кодека : V_MPEG4/ISO/AVC
Продолжительность : 2 ч. 1 м.
Битрейт : 3861 Кбит/сек
Ширина : 1280 пикселей
Высота : 720 пикселей
Соотношение сторон : 16:9
Режим частоты кадров : Постоянный
Частота кадров : 23,976 кадра/сек
Цветовое пространство : YUV
Субдискретизация насыщенности : 4:2:0
Битовая глубина : 8 бит
Тип развёртки : Прогрессивная
Бит/(Пиксели*Кадры) : 0.175
Размер потока : 3,27 Гбайт (81%)
Язык : English
Default : Да
Forced : Нет
Основные цвета : BT.709
Характеристики трансфера : BT.709
Коэффициенты матрицы : BT.709
Аудио #1
Идентификатор : 2
Формат : AC-3
Формат/Информация : Audio Coding 3
Расширение режима : CM (complete main)
Параметр Endianness формата : Big
Идентификатор кодека : A_AC3
Продолжительность : 2 ч. 1 м.
Вид битрейта : Постоянный
Битрейт : 448 Кбит/сек
Каналы : 6 каналов
Расположение каналов : Front: L C R, Side: L R, LFE
Частота : 48,0 КГц
Битовая глубина : 16 бит
Метод сжатия : С потерями
Размер потока : 389 Мбайт (9%)
Заголовок : MVO
Язык : Russian
Default : Да
Forced : Нет
Аудио #2
Идентификатор : 3
Формат : AC-3
Формат/Информация : Audio Coding 3
Расширение режима : CM (complete main)
Параметр Endianness формата : Big
Идентификатор кодека : A_AC3
Продолжительность : 2 ч. 1 м.
Вид битрейта : Постоянный
Битрейт : 384 Кбит/сек
Каналы : 6 каналов
Расположение каналов : Front: L C R, Side: L R, LFE
Частота : 48,0 КГц
Битовая глубина : 16 бит
Метод сжатия : С потерями
Размер потока : 333 Мбайт (8%)
Язык : English
Default : Нет
Forced : Нет
Текст #1
Идентификатор : 4
Формат : UTF-8
Идентификатор кодека : S_TEXT/UTF8
Идентификатор кодека/Информация : UTF-8 Plain Text
Заголовок : CC
Язык : English
Default : Нет
Forced : Нет
Текст #2
Идентификатор : 5
Формат : UTF-8
Идентификатор кодека : S_TEXT/UTF8
Идентификатор кодека/Информация : UTF-8 Plain Text
Заголовок : непереведённые места
Язык : Russian
Default : Да
Forced : Нет
Меню
00:00:00.000 : en:Chapter 1
00:05:35.000 : en:Chapter 2
00:14:57.000 : en:Chapter 3
00:26:56.000 : en:Chapter 4
00:33:58.000 : en:Chapter 5
00:44:02.000 : en:Chapter 6
00:54:14.000 : en:Chapter 7
01:02:39.000 : en:Chapter 8
01:11:20.000 : en:Chapter 9
01:31:16.000 : en:Chapter 10
01:40:44.000 : en:Chapter 11
01:47:37.000 : en:Chapter 12
01:56:33.000 : en:Chapter 13
 
Показать сообщения:    

Текущее время: Сегодня 10:42

Часовой пояс: GMT



Вы не можете начинать темы
Вы не можете отвечать на сообщения
Вы не можете редактировать свои сообщения
Вы не можете удалять свои сообщения
Вы не можете голосовать в опросах
Вы не можете прикреплять файлы к сообщениям
Вы не можете скачивать файлы