Важное объявление!
У Нас Все раздачи мультитрекерные, при нуле пиров в релизах, можете смело вставать на закачку!
 
Автор Сообщение

HUNTER

Стаж:
4 года 4 месяца
Сообщений:
56772

Репутация: 101

[+] [-]
Вне форума [Профиль] [ЛС]

Последний дом слева / The Last House on the Left / Unrated
Страна: США
Студия: Rogue Pictures, Scion Films, Film Afrika Worldwide
Жанр: триллер, драма, криминал
Год выпуска: 2009
Продолжительность: 01:53:54
Перевод : Профессиональный (дублированный)
Cубтитры: английские, русские
Оригинальная аудиодорожка: английский
Режиссер:
Дэннис Илиадис / Dennis Iliadis
В ролях:
Тони Голдуин, Моника Поттер, Гаррет Диллахант, Аарон Пол, Спенсер Трит Кларк, Рики Линдхоум, Марта МакАйсак, Сара Пэкстон, Майкл Боуэн, Джошуа Кокс, Уша Кхан
Роли дублировали
Василий Дахненко, Лариса Некипелова, Александр Коврижных, Сергей Бурунов, Наталья Фищук, Рамиля Искандер, Николай Быстров
Описание:
Мама, папа и дочь отправляются в загородный дом, чтобы счастливо провести выходные дни. Сначала кажется удивительным, что дочь-подросток соглашается провести свободное время подобным образом. Но все очень просто — недалеко от этого дома находится городок, где живет ее лучшая подруга. Девушки встречаются и знакомятся со странным парнем, у которого есть травка.
Компания приходит в отель и готовится оттянуться по-взрослому, но в самый неподходящий момент появляются беглые преступники, которые начинают жестоко глумиться над девчонками. Затем они перемещаются в тот самый последний дом слева, где сталкиваются с родителями девушки. Ничего не подозревающие родители предоставляют кров преступникам, но затем события развиваются по жестокому сценарию.
Доп. информация:
Видео, звуковые дорожки и субтитры были взяты с BD Remux_а за который спасибо RealAmbal. Основа для меню и чаптеры были взяты с The Last House On The Left BD50 скачанного с забугорного трекера. Видео сжато Rhozet Carbon Coder в VBR 8500 в два прохода, по инструкции за которую спасибо Mikky72. Диск собран с помощью Sonic Scenarist.
Меню:
Есть, анимированное и озвученное. Язык английский / русский.
Сэмпл
Тип релиза: BD>DVD9 (Custom)
Контейнер: DVD-Video
Видео: NTSC 16:9 (720x480) VBR, Auto Letterboxed
Аудио 1: Russian AC3/ 5.1 / 48 kHz/ 448 kbps, Дублированный
Аудио 2: English AC3/ 5.1 / 48 kHz / 448 kbps , Оригинал
Формат субтитров: prerendered (DVD/IDX+SUB)Релиз группа

Информация по сборке релиза

Используемый софт

MeGUI - HD-DVD/Blu-ray Streams Extractor - разборка BDRemux
UsEac3To / TranzcodeGUI - распаковка на wav
Vegas Pro - сборка звуковых дорожек ac3
Carbon Coder - конвертация видео
FineReader 10 / SUPread /SubsCreator - перевод субтитров из формата .sub в .srt
Subtitles Creator 2.2 – подготовка субтитров для Scenarist
Adobe Photoshop CS6 / DVD Architect Pro - работа с меню
Sonic Scenarist / DVDRemake Pro - сборка DVD

MediaInfo BDRemux

Общее
Уникальный идентификатор : 245427893594098138499642299466238363033 (0xB8A3B164E9FD6527935DB338A0BB8599)
Полное имя : I:\Downloads\The Last House on the Left\The.Last.House.on.the.Left.2009.BD.Remux.mkv
Формат : Matroska
Версия формата : Version 1
Размер файла : 17,9 Гбайт
Продолжительность : 1 ч. 53 м.
Общий поток : 22,5 Мбит/сек
Название фильма : The Last House On The Left [UNRATED] (2009) by GP
Дата кодирования : UTC 2009-09-14 13:33:56
Программа кодирования : mkvmerge v2.6.0 ('Kelly watch the Stars') built on Mar 24 2009 15:23:17
Библиотека кодирования : libebml v0.7.7 + libmatroska v0.8.1
Видео
Идентификатор : 1
Формат : VC-1
Профиль формата : Advanced@L3
Идентификатор кодека : V_MS/VFW/FOURCC / WVC1
Идентификатор кодека/Подсказка : Microsoft
Продолжительность : 1 ч. 53 м.
Битрейт : 19,8 Мбит/сек
Ширина : 1920 пикселей
Высота : 1080 пикселей
Соотношение сторон : 16:9
Режим частоты кадров : Постоянный
Частота кадров : 23,976 кадра/сек
Цветовое пространство : YUV
Субдискретизация насыщенности : 4:2:0
Битовая глубина : 8 бит
Тип развёртки : Прогрессивная
Метод сжатия : С потерями
Бит/(Пиксели*Кадры) : 0.398
Размер потока : 15,7 Гбайт (88%)
Default : Да
Forced : Нет
Аудио #1
Идентификатор : 2
Формат : DTS
Формат/Информация : Digital Theater Systems
Режим : 16
Параметр Endianness формата : Big
Идентификатор кодека : A_DTS
Продолжительность : 1 ч. 53 м.
Вид битрейта : Постоянный
Битрейт : 755 Кбит/сек
Каналы : 6 каналов
Расположение каналов : Front: L C R, Side: L R, LFE
Частота : 48,0 КГц
Битовая глубина : 24 бит
Метод сжатия : С потерями
Размер потока : 613 Мбайт (3%)
Язык : Russian
Default : Да
Forced : Нет
Аудио #2
Идентификатор : 3
Формат : DTS
Формат/Информация : Digital Theater Systems
Режим : 16
Параметр Endianness формата : Big
Идентификатор кодека : A_DTS
Продолжительность : 1 ч. 53 м.
Вид битрейта : Постоянный
Битрейт : 1510 Кбит/сек
Каналы : 6 каналов
Расположение каналов : Front: L C R, Side: L R, LFE
Частота : 48,0 КГц
Битовая глубина : 24 бит
Метод сжатия : С потерями
Размер потока : 1,20 Гбайт (7%)
Язык : English
Default : Нет
Forced : Нет
Текст #1
Идентификатор : 4
Формат : UTF-8
Идентификатор кодека : S_TEXT/UTF8
Идентификатор кодека/Информация : UTF-8 Plain Text
Язык : Russian
Default : Да
Forced : Нет
Текст #2
Идентификатор : 5
Формат : UTF-8
Идентификатор кодека : S_TEXT/UTF8
Идентификатор кодека/Информация : UTF-8 Plain Text
Язык : English
Default : Нет
Forced : Нет

DVDInfo

Title: The Last House on the Left_2009BD-DVD9
Size: 7.87 Gb ( 8 257 466,00 KBytes ) - DVD-9
Enabled regions: 1, 2, 3, 4, 5, 6, 7, 8
VTS_01 :
Play Length: 00:00:23+01:53:31
Video: NTSC 16:9 (720x480) VBR, Auto Letterboxed
Audio:
Russian (Dolby AC3, 6 ch)
English (Dolby AC3, 6 ch)
Subtitles:
Russian
English

Скрипт

LoadPlugin("C:\Program Files (x86)\FFmpegSource2\ffms2.dll") #подключение декодера
FFVideoSource("D:\Video\The Last House.mkv") #открытие видео
LoadPlugin("C:\Program Files (x86)\AutoYUY2\AutoYUY2.dll") #подключение плагина
AutoYUY2() #конверсия цветового пространства
LoadPlugin("C:\Program Files (x86)\ColorMatrix\ColorMatrix.dll") #подключение плагина
ColorMatrix(mode="Rec.709->Rec.601", inputFR=false, clamp=0) #16-235
AssumeFPS("ntsc_film")
BicubicResize(720, 480, 0, 0.5) #ресайз методом Catmull-Rom spline
#AddBorders (0,0,0,0) #bbb=00

Точка перехода

Скриншоты меню

Скриншоты

Проверено на софтовом CyberLink PowerDVD и железном плейере BBK.
Раздавать буду с 9.00 до 23.00 до первых пяти скачавших.
Потом по возможности.

Просьба к скачавшим - не уходите сразу после скачивания с раздачи!!!

_________________
Показать сообщения:    

Текущее время: Сегодня 17:19

Часовой пояс: GMT



Вы не можете начинать темы
Вы не можете отвечать на сообщения
Вы не можете редактировать свои сообщения
Вы не можете удалять свои сообщения
Вы не можете голосовать в опросах
Вы не можете прикреплять файлы к сообщениям
Вы не можете скачивать файлы