Важное объявление!
У Нас Все раздачи мультитрекерные, при нуле пиров в релизах, можете смело вставать на закачку!
 
Автор Сообщение

HUNTER

Стаж:
4 года 4 месяца
Сообщений:
56734

Репутация: 101

[+] [-]
Вне форума [Профиль] [ЛС]

Последние тайны Третьего рейха / Nazi Underworld
Год выпуска: 2012
Страна: Германия
Производство: National Geographic, Loopfilm, Februar Film, ZDF-Mediathek
Жанр: Документальный, познавательный, история, военный, политика, исследование
Продолжительность: 5 х ~ 00:44:30
Перевод: Одноголосый закадровый
Русские субтитры: нет
Режиссер: Тим Верстеджен
Описание: Новые данные и неожиданные выводы исследователей проливают свет на неизвестную сторону истории Третьего рейха и его властной элиты...

качество: SATRip
формат: AVI
Видео: MPEG-4 Visual, 720 х 400 (16:9), 25,000 кадров/сек, DivX 5, 0.222 бит/пиксель
Аудио: MP3, 48,0 КГц, 128 Кбит/сек, 2 канала
Дополнительная информация:
  • Автор рипа kinoman05

Содержание

01. Загадка Гесса / The Hess Enigma
02. Пациент Гитлер / Patient Hitler
03. Призраки субмарины U-513 / Ghosts of the submarine U-513
04. Золото нацистов / Nazi Gold
05. Смертельные миссии / Deadly Missions

MediaInfo

Общее
Полное имя : D:\torrent\Nazi Underworld_2\Patient Hitler.avi
Формат : AVI
Формат/Информация : Audio Video Interleave
Размер файла : 553 Мбайт
Продолжительность : 44 м.
Общий поток : 1746 Кбит/сек
Видео
Идентификатор : 0
Формат : MPEG-4 Visual
Параметр BVOP формата : Да
Параметр QPel формата : Нет
Параметр GMC формата : Без точки перехода
Параметр матрицы формата : Default (H.263)
Идентификатор кодека : DX50
Идентификатор кодека/Подсказка : DivX 5
Продолжительность : 44 м.
Битрейт : 1601 Кбит/сек
Ширина : 720 пикселей
Высота : 400 пикселей
Соотношение сторон : 16:9
Частота кадров : 25,000 кадров/сек
Цветовое пространство : YUV
Субдискретизация насыщенности : 4:2:0
Битовая глубина : 8 бит
Тип развёртки : Прогрессивная
Метод сжатия : С потерями
Бит/(Пиксели*Кадры) : 0.222
Размер потока : 507 Мбайт (92%)
Библиотека кодирования : Intel(R) MPEG-4 encoder based on Intel(R) IPP 6.1 build 137.20[6.1.137.763]
Аудио
Идентификатор : 1
Формат : MPEG Audio
Версия формата : Version 1
Профиль формата : Layer 3
Режим : Joint stereo
Расширение режима : MS Stereo
Идентификатор кодека : 55
Идентификатор кодека/Подсказка : MP3
Продолжительность : 44 м.
Вид битрейта : Постоянный
Битрейт : 128 Кбит/сек
Каналы : 2 канала
Частота : 48,0 КГц
Метод сжатия : С потерями
Размер потока : 40,5 Мбайт (7%)
Выравнивание : Соединение по промежуткам
Продолжительность промежутка : 24 мс. (0,60 видеокадр)
Библиотека кодирования : LAME3.98.2

Скриншоты


_________________
Показать сообщения:    

Текущее время: Сегодня 14:20

Часовой пояс: GMT



Вы не можете начинать темы
Вы не можете отвечать на сообщения
Вы не можете редактировать свои сообщения
Вы не можете удалять свои сообщения
Вы не можете голосовать в опросах
Вы не можете прикреплять файлы к сообщениям
Вы не можете скачивать файлы