Важное объявление!
У Нас Все раздачи мультитрекерные, при нуле пиров в релизах, можете смело вставать на закачку!
 
Автор Сообщение

HUNTER

Стаж:
4 года 4 месяца
Сообщений:
56790

Репутация: 101

[+] [-]
Вне форума [Профиль] [ЛС]

Последние тайны Третьего рейха / Nazi Underworld
Год выпуска: 2012
Страна: США, National Geographic
Жанр: Документальный
Продолжительность: ~ 00:44:30
Перевод: Профессиональный (дублированный)
Русские субтитры: нет
Описание: Родственница Генриха Гиммлера, жившая в 17 веке, была сожжена на костре как ведьма. Адольф Гитлер, возможно, предполагал, что он сам имел еврейские корни. Эрвин Роммель бросил мать своего незаконнорожденного ребенка. Альберт Шпеер был патологическим лжецом, и это спасло ему жизнь. Фюрер притворялся бедным, но на самом деле нажил огромное личное состояние. Он вызывал большой интерес у женщин и сам испытывал интерес к ним, особенно к молодым и беззащитным. Все эти сенсационные разоблачения будут подвергнуты самому строгому анализу в этом новом увлекательном сериале, открывающем неизвестную сторону истории гитлеровского режима.
качество: HDTVRip
формат: AVI
Видео: XviD. 720x400 (16:9) 25.00fps : ~ 1474 Кбит/сек
Аудио: Русский, AC3, 48 kHz, 2 ch, 192 Кбит/с
Аудио: Английский AC3, 48 kHz, 2 ch, 192 Кбит/с
Официальный сайт
Официальный сайт РУ

Релиз Работа со звуком

Список выпусков/серий

1 Загадка Гесса
Новые данные и неожиданные выводы исследователей проливают свет на неизвестную сторону истории Третьего рейха и его властной элиты.
3 Призраки подводной лодки U-513
Что же на самом деле потопило немецкую подводную лодку U-513 в 1943 году? Мы раскрываем тайны ее последнего приюта.
4 Золото фашистов
Новые данные и неожиданные выводы исследователей проливают свет на неизвестную сторону истории Третьего рейха и его властной элиты.

MediaInfo

Format : AVI
Format/Info : Audio Video Interleave
File size : 575 MiB
Duration : 44mn 42s
Overall bit rate : 1 797 Kbps
Writing application : VirtualDubModRus 1.5.10.2 (build 2542/release)
Writing library : VirtualDubMod build 2542/release
Video
ID : 0
Format : MPEG-4 Visual
Format profile : Advanced Simple@L5
Format settings, BVOP : 2
Format settings, QPel : No
Format settings, GMC : No warppoints
Format settings, Matrix : Default (H.263)
Codec ID : XVID
Codec ID/Hint : XviD
Duration : 44mn 42s
Bit rate : 1 398 Kbps
Width : 720 pixels
Height : 400 pixels
Display aspect ratio : 16:9
Frame rate : 25.000 fps
Color space : YUV
Chroma subsampling : 4:2:0
Bit depth : 8 bits
Scan type : Progressive
Compression mode : Lossy
Bits/(Pixel*Frame) : 0.194
Stream size : 447 MiB (78%)
Writing library : XviD 1.2.1 (UTC 2008-12-04)
Audio #1
ID : 1
Format : AC-3
Format/Info : Audio Coding 3
Mode extension : CM (complete main)
Format settings, Endianness : Big
Codec ID : 2000
Duration : 44mn 42s
Bit rate mode : Constant
Bit rate : 192 Kbps
Channel count : 2 channels
Channel positions : Front: L R
Sampling rate : 48.0 KHz
Bit depth : 16 bits
Compression mode : Lossy
Stream size : 61.4 MiB (11%)
Alignment : Split accross interleaves
Interleave, duration : 40 ms (1.00 video frame)
Interleave, preload duration : 500 ms
Audio #2
ID : 2
Format : AC-3
Format/Info : Audio Coding 3
Mode extension : CM (complete main)
Format settings, Endianness : Big
Codec ID : 2000
Duration : 44mn 42s
Bit rate mode : Constant
Bit rate : 192 Kbps
Channel count : 2 channels
Channel positions : Front: L R
Sampling rate : 48.0 KHz
Bit depth : 16 bits
Compression mode : Lossy
Stream size : 61.4 MiB (11%)
Alignment : Split accross interleaves
Interleave, duration : 40 ms (1.00 video frame)
Interleave, preload duration : 500 ms

Скриншоты

Если вы скачали данный релиз и хотите выложить его на другом ресурсе -
пожалуйста, указывайте первоисточник
dysonegear

_________________
Показать сообщения:    

Текущее время: Сегодня 18:16

Часовой пояс: GMT



Вы не можете начинать темы
Вы не можете отвечать на сообщения
Вы не можете редактировать свои сообщения
Вы не можете удалять свои сообщения
Вы не можете голосовать в опросах
Вы не можете прикреплять файлы к сообщениям
Вы не можете скачивать файлы