Важное объявление!
У Нас Все раздачи мультитрекерные, при нуле пиров в релизах, можете смело вставать на закачку!
 
Автор Сообщение

HUNTER

Стаж:
4 года 4 месяца
Сообщений:
56765

Репутация: 101

[+] [-]
Вне форума [Профиль] [ЛС]

Последние рыцари / Last Knights-«Битва за честь, война за справедливость»-
-Страна: Чехия, Южная Корея
Жанр: драма, боевик, приключения
Год выпуска: 2015
Продолжительность: 01:49:54

Мировая премьера: 3 апреля 2015
Российская премьера: 2 апреля 2015, «Top Film Distribution»
Дата выхода DVD: 2 июня 2015, «Lizard Cinema Trade»
Дата выхода Blu-Ray: 2 июня 2015, «Lizard Cinema Trade»--Перевод: Профессиональный (дублированный)
Cубтитры: английские
Оригинальная аудиодорожка: есть
Cубтитры: Английские (Full, SDH, SDH-COLORED)--Режиссер: Казуаки Кирия / Kazuaki Kiriya
--В ролях: Клайв Оуэн, Морган Фриман, Клифф Кёртис, Аксель Хенни, Цуёси Ихара, Шоре Агдашлу, Пейман Моаади, Ан Сон Ги, Пак Си Ен, Дэниэл Адегбойега...--Описание: Средневековье, междоусобные распри раздирают королевство на мелкие анклавы, их правители наращивают собственные военные силы. Лишь истинный благородный воин — Король Барток — видит силу и будущее в единстве. При поддержке своих преданных и закаленных в сражениях рыцарей, он способен объединить земли. Но коварные враги уничтожают короля. И тогда его верные рыцари во имя высшей справедливости и отмщения чести своего господина выступают на штурм самой защищенной крепости королевства. Они готовятся взять реванш ценою собственных жизней.-- --MPAA: R | Sample |--Тип релиза: BDRip 1080p
Контейнер: MKV
Видео: MPEG4/AVC, 1920x804, 25.000 fps, 10 000 kbps avg, 0.259 bit/pixel.
Аудио 1: AC3 Dolby Digital Audio, 3/2 (L,C,R,l,r) + LFE ch, 48 kHz, ~640 kbps avg
Аудио 2: AC3 Dolby Digital Audio, 3/2 (L,C,R,l,r) + LFE ch, 48 kHz, ~640 kbps avg
Формат субтитров: softsub (SRT)
-

MediaInfo

General
Unique ID : 229519814304541421078397428607939669674 (0xACABE887A7AFBC7EBAB71848F26A6EAA)
Complete name : Последние рыцари (2015).mkv
Format : Matroska
Format version : Version 4 / Version 2
File size : 8.66 GiB
Duration : 1h 49mn
Overall bit rate : 11.3 Mbps
Movie name : Последние рыцари / Last Knights (2015)
Encoded date : UTC 2015-06-07 11:25:06
Writing application : mkvmerge v7.8.0 ('River Man') 64bit built on Mar 27 2015 16:31:37
Writing library : libebml v1.3.1 + libmatroska v1.4.2
Attachements : cover.png
DURATION : 01:42:07.882000000
NUMBER_OF_FRAMES : 856
NUMBER_OF_BYTES : 34477
_STATISTICS_WRITING_APP : mkvmerge v7.8.0 ('River Man') 64bit built on Mar 27 2015 16:31:37
_STATISTICS_WRITING_DATE_UT : 2015-06-07 11:25:06
_STATISTICS_TAGS : BPS DURATION NUMBER_OF_FRAMES NUMBER_OF_BYTES
Video
ID : 1
Format : AVC
Format/Info : Advanced Video Codec
Format profile : High@L4.1
Format settings, CABAC : Yes
Format settings, ReFrames : 5 frames
Codec ID : V_MPEG4/ISO/AVC
Duration : 1h 49mn
Bit rate : 10 000 Kbps
Width : 1 920 pixels
Height : 804 pixels
Display aspect ratio : 2.40:1
Frame rate mode : Constant
Frame rate : 25.000 fps
Color space : YUV
Chroma subsampling : 4:2:0
Bit depth : 8 bits
Scan type : Progressive
Bits/(Pixel*Frame) : 0.259
Stream size : 7.50 GiB (87%)
Writing library : x264 core 146 r2538 121396c
Encoding settings : cabac=1 / ref=5 / deblock=1:-3:-3 / analyse=0x3:0x33 / me=umh / subme=11 / psy=1 / psy_rd=1.05:0.15 / mixed_ref=1 / me_range=32 / chroma_me=1 / trellis=2 / 8x8dct=1 / cqm=0 / deadzone=21,11 / fast_pskip=0 / chroma_qp_offset=-3 / threads=12 / lookahead_threads=2 / sliced_threads=0 / nr=0 / decimate=0 / interlaced=0 / bluray_compat=0 / constrained_intra=0 / bframes=9 / b_pyramid=2 / b_adapt=2 / b_bias=0 / direct=3 / weightb=1 / open_gop=0 / weightp=2 / keyint=250 / keyint_min=25 / scenecut=40 / intra_refresh=0 / rc_lookahead=60 / rc=2pass / mbtree=1 / bitrate=10000 / ratetol=1.0 / qcomp=0.60 / qpmin=0 / qpmax=69 / qpstep=4 / cplxblur=20.0 / qblur=0.5 / ip_ratio=1.40 / aq=3:0.90
Language : English
Default : Yes
Forced : No
DURATION : 01:49:54.560000000
NUMBER_OF_FRAMES : 164864
NUMBER_OF_BYTES : 8238061418
_STATISTICS_WRITING_APP : mkvmerge v7.8.0 ('River Man') 64bit built on Mar 27 2015 16:31:37
_STATISTICS_WRITING_DATE_UT : 2015-06-07 11:25:06
_STATISTICS_TAGS : BPS DURATION NUMBER_OF_FRAMES NUMBER_OF_BYTES
Audio #1
ID : 2
Format : AC-3
Format/Info : Audio Coding 3
Mode extension : CM (complete main)
Format settings, Endianness : Big
Codec ID : A_AC3
Duration : 1h 49mn
Bit rate mode : Constant
Bit rate : 640 Kbps
Channel(s) : 6 channels
Channel positions : Front: L C R, Side: L R, LFE
Sampling rate : 48.0 KHz
Bit depth : 16 bits
Compression mode : Lossy
Stream size : 503 MiB (6%)
Title : Дубляж
Language : Russian
Default : Yes
Forced : No
Audio #2
ID : 3
Format : AC-3
Format/Info : Audio Coding 3
Mode extension : CM (complete main)
Format settings, Endianness : Big
Codec ID : A_AC3
Duration : 1h 49mn
Bit rate mode : Constant
Bit rate : 640 Kbps
Channel(s) : 6 channels
Channel positions : Front: L C R, Side: L R, LFE
Sampling rate : 48.0 KHz
Bit depth : 16 bits
Compression mode : Lossy
Stream size : 503 MiB (6%)
Language : English
Default : No
Forced : No
Text #1
ID : 4
Format : UTF-8
Codec ID : S_TEXT/UTF8
Codec ID/Info : UTF-8 Plain Text
Title : Full
Language : English
Default : No
Forced : No
Text #2
ID : 5
Format : UTF-8
Codec ID : S_TEXT/UTF8
Codec ID/Info : UTF-8 Plain Text
Title : SDH
Language : English
Default : No
Forced : No
Text #3
ID : 6
Format : UTF-8
Codec ID : S_TEXT/UTF8
Codec ID/Info : UTF-8 Plain Text
Title : SDH-Colored
Language : English
Default : No
Forced : No
Menu
00:00:00.000 : en:00:00:00.000
00:08:56.760 : en:00:08:56.760
00:16:09.640 : en:00:16:09.640
00:24:09.320 : en:00:24:09.320
00:34:43.880 : en:00:34:43.880
00:41:42.560 : en:00:41:42.560
00:45:09.840 : en:00:45:09.840
00:54:38.719 : en:00:54:38.719
01:05:12.560 : en:01:05:12.560
01:14:43.479 : en:01:14:43.479
01:23:39.080 : en:01:23:39.080
01:34:17.560 : en:01:34:17.560

Скриншоты


_________________
Показать сообщения:    

Текущее время: Сегодня 01:45

Часовой пояс: GMT



Вы не можете начинать темы
Вы не можете отвечать на сообщения
Вы не можете редактировать свои сообщения
Вы не можете удалять свои сообщения
Вы не можете голосовать в опросах
Вы не можете прикреплять файлы к сообщениям
Вы не можете скачивать файлы