Важное объявление!
У Нас Все раздачи мультитрекерные, при нуле пиров в релизах, можете смело вставать на закачку!
 
Автор Сообщение

HUNTER

Стаж:
4 года 4 месяца
Сообщений:
56733

Репутация: 101

[+] [-]
Вне форума [Профиль] [ЛС]

Последние девушки / The Final Girls
Страна: США
Студия: Groundswell Productions
Жанр: ужасы, комедия
Год выпуска: 2015
Продолжительность: 01:31:21
Перевод: Профессиональный (многоголосый закадровый)
Cубтитры: Rus, Eng
Оригинальная аудиодорожка: английский
Режиссер: Тодд Штраус-Шульсон / Todd Strauss-Schulson
В ролях: Нина Добрев, Таисса Фармига, Малин Акерман, Александр Людвиг, Алиа Шокат, Хлоя Бриджес, Адам Дивайн, Анджела Тримбур, Томас Миддлдитч, Джеки Таттл
Описание: В центре событий — девушка, тяжело переживающая смерть матери, которая в 80-е была звездой слэшеров. В годовщину её смерти по странному стечению обстоятельств Макс с друзьями оказывается в одном из этих фильмов. Теперь они вместе должны противостоять преследующему их маньяку.

Тип релиза: BDRip 720p
Контейнер: MKV
Видео: MPEG-4 AVC, 4902 Кбит/с, 1280x538, 23,976 fps
Аудио: Rus, AC3, 640 kb/s (6 ch), 48 kHz
Аудио 2: Eng, AC3, 640 kb/s (6 ch), 48 kHz
Формат субтитров: softsub (SRT)

MediaInfo

Format : Matroska
Format version : Version 4 / Version 2
File size : 4.02 GiB
Duration : 1h 31mn
Overall bit rate : 6 308 Kbps
Movie name : Последние девушки. (Tonik)
Encoded date : UTC 2015-11-10 03:30:21
Writing application : mkvmerge v7.1.0 ('Good Love') 64bit built on Jul 27 2014 13:06:55
Writing library : libebml v1.3.0 + libmatroska v1.4.1
_STATISTICS_WRITING_APP : mkvmerge v7.1.0 ('Good Love') 64bit built on Jul 27 2014 13:06:55
_STATISTICS_WRITING_DATE_UTC : 2015-11-10 03:30:21
_STATISTICS_TAGS : BPS DURATION NUMBER_OF_FRAMES NUMBER_OF_BYTES
DURATION : 01:31:20.480000000
NUMBER_OF_FRAMES : 171265
NUMBER_OF_BYTES : 438438400
Video
ID : 1
Format : AVC
Format/Info : Advanced Video Codec
Format profile : High@L4.1
Format settings, CABAC : Yes
Format settings, ReFrames : 12 frames
Codec ID : V_MPEG4/ISO/AVC
Duration : 1h 31mn
Bit rate : 4 902 Kbps
Width : 1 280 pixels
Height : 538 pixels
Display aspect ratio : 2.40:1
Frame rate mode : Constant
Frame rate : 23.976 fps
Color space : YUV
Chroma subsampling : 4:2:0
Bit depth : 8 bits
Scan type : Progressive
Bits/(Pixel*Frame) : 0.297
Stream size : 3.13 GiB (78%)
Title : ENCODE CRiME
Writing library : x264 core 148 r2638 7599210
Encoding settings : cabac=1 / ref=12 / deblock=1:-3:-3 / analyse=0x3:0x133 / me=umh / subme=10 / psy=1 / psy_rd=1.00:0.00 / mixed_ref=1 / me_range=32 / chroma_me=1 / trellis=2 / 8x8dct=1 / cqm=0 / deadzone=21,11 / fast_pskip=0 / chroma_qp_offset=-2 / threads=6 / lookahead_threads=1 / sliced_threads=0 / nr=0 / decimate=0 / interlaced=0 / bluray_compat=0 / constrained_intra=0 / bframes=9 / b_pyramid=2 / b_adapt=2 / b_bias=0 / direct=3 / weightb=1 / open_gop=0 / weightp=2 / keyint=250 / keyint_min=24 / scenecut=40 / intra_refresh=0 / rc_lookahead=60 / rc=crf / mbtree=0 / crf=16.1 / qcomp=0.66 / qpmin=0 / qpmax=69 / qpstep=4 / vbv_maxrate=62500 / vbv_bufsize=78125 / crf_max=0.0 / nal_hrd=none / filler=0 / ip_ratio=1.30 / pb_ratio=1.20 / aq=3:0.75 / zones=0,651,crf=15/93286,93414,crf=15/93895,93988,crf=15/94449,94531,crf=15/96537,98087,crf=15/98737,109692,crf=15/124050,131400,crf=20
Language : English
Default : Yes
Forced : No
_STATISTICS_WRITING_APP : mkvmerge v7.1.0 ('Good Love') 64bit built on Jul 27 2014 13:06:55
_STATISTICS_WRITING_DATE_UTC : 2015-11-10 03:30:21
_STATISTICS_TAGS : BPS DURATION NUMBER_OF_FRAMES NUMBER_OF_BYTES
DURATION : 01:31:20.475000000
NUMBER_OF_FRAMES : 131400
NUMBER_OF_BYTES : 3442349898
Audio #1
ID : 2
Format : AC-3
Format/Info : Audio Coding 3
Mode extension : CM (complete main)
Format settings, Endianness : Big
Codec ID : A_AC3
Duration : 1h 31mn
Bit rate mode : Constant
Bit rate : 640 Kbps
Channel(s) : 6 channels
Channel positions : Front: L C R, Side: L R, LFE
Sampling rate : 48.0 KHz
Bit depth : 16 bits
Compression mode : Lossy
Stream size : 418 MiB (10%)
Language : Russian
Default : Yes
Forced : No
Audio #2
ID : 3
Format : AC-3
Format/Info : Audio Coding 3
Mode extension : CM (complete main)
Format settings, Endianness : Big
Codec ID : A_AC3
Duration : 1h 31mn
Bit rate mode : Constant
Bit rate : 640 Kbps
Channel(s) : 6 channels
Channel positions : Front: L C R, Side: L R, LFE
Sampling rate : 48.0 KHz
Bit depth : 16 bits
Compression mode : Lossy
Stream size : 418 MiB (10%)
Language : English
Default : No
Forced : No
Text #1
ID : 4
Format : UTF-8
Codec ID : S_TEXT/UTF8
Codec ID/Info : UTF-8 Plain Text
Language : Russian
Default : No
Forced : No
Text #2
ID : 5
Format : UTF-8
Codec ID : S_TEXT/UTF8
Codec ID/Info : UTF-8 Plain Text
Title : SDH
Language : English
Default : No
Forced : No
Text #3
ID : 6
Format : UTF-8
Codec ID : S_TEXT/UTF8
Codec ID/Info : UTF-8 Plain Text
Title : SDH Commentary1
Language : English
Default : No
Forced : No
Text #4
ID : 7
Format : UTF-8
Codec ID : S_TEXT/UTF8
Codec ID/Info : UTF-8 Plain Text
Title : SDH Commentary2
Language : English
Default : No
Forced : No
Menu #1
00:00:00.000 : en:00:00:00.000
00:05:51.393 : en:00:05:51.393
00:09:36.326 : en:00:09:36.326
00:17:25.628 : en:00:17:25.628
00:22:15.084 : en:00:22:15.084
00:27:19.346 : en:00:27:19.346
00:32:36.204 : en:00:32:36.204
00:37:59.194 : en:00:37:59.194
00:44:01.305 : en:00:44:01.305
00:48:59.895 : en:00:48:59.895
00:54:48.160 : en:00:54:48.160
00:59:00.203 : en:00:59:00.203
01:04:52.138 : en:01:04:52.138
01:08:12.088 : en:01:08:12.088
01:14:23.668 : en:01:14:23.668
01:19:57.292 : en:01:19:57.292

Скриншоты


_________________
Показать сообщения:    

Текущее время: Сегодня 02:43

Часовой пояс: GMT



Вы не можете начинать темы
Вы не можете отвечать на сообщения
Вы не можете редактировать свои сообщения
Вы не можете удалять свои сообщения
Вы не можете голосовать в опросах
Вы не можете прикреплять файлы к сообщениям
Вы не можете скачивать файлы