Важное объявление!
У Нас Все раздачи мультитрекерные, при нуле пиров в релизах, можете смело вставать на закачку!
 
Автор Сообщение

HUNTER

Стаж:
4 года 4 месяца
Сообщений:
56749

Репутация: 101

[+] [-]
Вне форума [Профиль] [ЛС]

Последнее искушение Христа / The Last Temptation of Christ
Страна: США, Канада
Жанр: драма
Год выпуска: 1988
Продолжительность: 02:43:39
Перевод: Профессиональный (многоголосый закадровый) Позитив-Мультимедия
Перевод: Профессиональный (двухголосый закадровый) с BD CEE издания
Перевод: Профессиональный (двухголосый закадровый) UPR
Перевод: Профессиональный (двухголосый закадровый) НТВ+
Перевод: Авторский (одноголосый закадровый) А.Михалев
Cубтитры: русские, английские
Оригинальная аудиодорожка: английский-Режиссер: Мартин Скорсезе / Martin Scorsese
В ролях: Уиллем Дефо, Пол Греко, Харви Кейтель, Стив Шилл, Верна Блум, Робертс Блоссом, Барри Миллер, Гэри Басараба, Ирвин Кершнер, Виктор Арго, Пол Херман, Джон Лури, Лео Бурместер, Дэвид Боуи, Майкл Бин
Описание: Фильм, снятый по одноименному роману греческого писателя Никоса Казандзакиса, является попыткой отразить как божественную, так и человеческую сущность Христа. У экранного Христа много человеческого, он не совершенен. Фильм демонстрирует, что даже Иисусу могло быть трудно соответствовать идеалам спасения и что мирские дела его тоже интересовали. Избрав судьбу мученической смерти и не поддавшись "последнему искушению" прожить жизнь простого семейного человека, Христос в фильме Скорсезе оказывается изолированным от других людей.
IMDb || КиноПоиск-Тип релиза: BDRemux 1080p
Контейнер: MKV
Видео: MPEG-4 AVC Video, 1920x1080 at 23.976 fps, 29634 kbps
Аудио#1: Russian: 48 kHz, AC3, 5.1 ch, 384 kbps |Позитив-Мультимедия
Аудио#2: Russian: 48 kHz, DTS, 2.0 ch, 768 kbps |BD CEE
Аудио#3: Russian: 48 kHz, AC3, 2.0 ch, 384 kbps |UPR
Аудио#4: Russian: 48 kHz, AC3, 2.0 ch, 192 kbps |НТВ+
Аудио#5: Russian: 48 kHz, AC3, 2.0 ch, 256 kbps |Михалев
Аудио#6: English: 48 kHz, DTS-HD MA, 5.1 ch, 4436 kbps (DTS Core: 5.1 / 48 kHz / 1509 kbps / 24-bit)
Аудио#7: English: 48 kHz, AC3, 2.0 ch, 192 kbps |Commentary by M.Scorsese, W.Dafoe, P.Schrader, J.Cocks
Формат субтитров: softsub (SRT)
Сэмпл
MediaInfo
General
Unique ID : 225879453611830168842812581632256914179 (0xA9EECCE3F3F0E0E7B61FB32613963303)
Complete name : N:\Rutracker\Последнее искушение Христа\The.Last.Temptation.of.Christ.1988.Criterion.BDRemux. rutracker.mkv
Format : Matroska
Format version : Version 2
File size : 41.3 GiB
Duration : 2h 43mn
Overall bit rate mode : Variable
Overall bit rate : 36.1 Mbps
Movie name : Release for RuTracker
Encoded date : UTC 2014-05-22 10:16:59
Writing application : mkvmerge v5.0.1 ('Es ist Sommer') built on Nov 6 2011 16:23:40
Writing library : libebml v1.2.2 + libmatroska v1.3.0
Video
ID : 1
Format : AVC
Format/Info : Advanced Video Codec
Format profile : High@L4.1
Format settings, CABAC : Yes
Format settings, ReFrames : 4 frames
Format settings, GOP : M=3, N=12
Codec ID : V_MPEG4/ISO/AVC
Duration : 2h 43mn
Bit rate mode : Variable
Maximum bit rate : 37.0 Mbps
Width : 1 920 pixels
Height : 1 080 pixels
Display aspect ratio : 16:9
Frame rate mode : Constant
Frame rate : 23.976 fps
Color space : YUV
Chroma subsampling : 4:2:0
Bit depth : 8 bits
Scan type : Progressive
Title : The.Last.Temptation.of.Christ.1988.Criterion.BDRemux. rutracker
Language : English
Default : Yes
Forced : No
Audio #1
ID : 2
Format : AC-3
Format/Info : Audio Coding 3
Mode extension : CM (complete main)
Format settings, Endianness : Big
Codec ID : A_AC3
Duration : 2h 43mn
Bit rate mode : Constant
Bit rate : 384 Kbps
Channel(s) : 6 channels
Channel positions : Front: L C R, Side: L R, LFE
Sampling rate : 48.0 KHz
Bit depth : 16 bits
Compression mode : Lossy
Stream size : 449 MiB (1%)
Title : mvo, Позитив-Мультимедия
Language : Russian
Default : Yes
Forced : No
Audio #2
ID : 3
Format : DTS
Format/Info : Digital Theater Systems
Mode : 16
Format settings, Endianness : Big
Codec ID : A_DTS
Duration : 2h 43mn
Bit rate mode : Constant
Bit rate : 768 Kbps
Channel(s) : 2 channels
Channel positions : Front: L R
Sampling rate : 48.0 KHz
Bit depth : 24 bits
Compression mode : Lossy
Stream size : 899 MiB (2%)
Title : dvo, BD CEE
Language : Russian
Default : No
Forced : No
Audio #3
ID : 4
Format : AC-3
Format/Info : Audio Coding 3
Mode extension : CM (complete main)
Format settings, Endianness : Big
Codec ID : A_AC3
Duration : 2h 43mn
Bit rate mode : Constant
Bit rate : 384 Kbps
Channel(s) : 2 channels
Channel positions : Front: L R
Sampling rate : 48.0 KHz
Bit depth : 16 bits
Compression mode : Lossy
Stream size : 449 MiB (1%)
Title : dvo, UPR
Language : Russian
Default : No
Forced : No
Audio #4
ID : 5
Format : AC-3
Format/Info : Audio Coding 3
Mode extension : CM (complete main)
Format settings, Endianness : Big
Codec ID : A_AC3
Duration : 2h 43mn
Bit rate mode : Constant
Bit rate : 192 Kbps
Channel(s) : 2 channels
Channel positions : Front: L R
Sampling rate : 48.0 KHz
Bit depth : 16 bits
Compression mode : Lossy
Stream size : 225 MiB (1%)
Title : dvo, НТВ+
Language : Russian
Default : No
Forced : No
Audio #5
ID : 6
Format : AC-3
Format/Info : Audio Coding 3
Mode extension : CM (complete main)
Format settings, Endianness : Big
Codec ID : A_AC3
Duration : 2h 43mn
Bit rate mode : Constant
Bit rate : 256 Kbps
Channel(s) : 2 channels
Channel positions : Front: L R
Sampling rate : 48.0 KHz
Bit depth : 16 bits
Compression mode : Lossy
Stream size : 300 MiB (1%)
Title : avo, Михалев
Language : Russian
Default : No
Forced : No
Audio #6
ID : 7
Format : DTS
Format/Info : Digital Theater Systems
Format profile : MA / Core
Mode : 16
Format settings, Endianness : Big
Codec ID : A_DTS
Duration : 2h 43mn
Bit rate mode : Variable
Bit rate : Unknown / 1 509 Kbps
Channel(s) : 6 channels
Channel positions : Front: L C R, Side: L R, LFE
Sampling rate : 48.0 KHz
Bit depth : 24 bits
Compression mode : Lossless / Lossy
Title : original
Language : English
Default : No
Forced : No
Audio #7
ID : 8
Format : AC-3
Format/Info : Audio Coding 3
Mode extension : CM (complete main)
Format settings, Endianness : Big
Codec ID : A_AC3
Duration : 2h 43mn
Bit rate mode : Constant
Bit rate : 192 Kbps
Channel(s) : 2 channels
Channel positions : Front: L R
Sampling rate : 48.0 KHz
Bit depth : 16 bits
Compression mode : Lossy
Stream size : 225 MiB (1%)
Title : commentary
Language : English
Default : No
Forced : No
Text #1
ID : 9
Format : UTF-8
Codec ID : S_TEXT/UTF8
Codec ID/Info : UTF-8 Plain Text
Title : BD CEE
Language : Russian
Default : No
Forced : No
Text #2
ID : 10
Format : UTF-8
Codec ID : S_TEXT/UTF8
Codec ID/Info : UTF-8 Plain Text
Title : by Валентин Абрамов
Language : Russian
Default : No
Forced : No
Text #3
ID : 11
Format : UTF-8
Codec ID : S_TEXT/UTF8
Codec ID/Info : UTF-8 Plain Text
Language : English
Default : No
Forced : No
Menu
00:00:00.000 : en:1. The feeling begins
00:07:02.881 : en:2."Condemned to die"
00:12:25.828 : en:3. Magdalene
00:17:28.631 : en:4."I need you to forgive me"
00:23:00.796 : en:5. The master
00:28:19.114 : en:6. Purified
00:33:28.465 : en:7. The Sermon on the Mount
00:42:08.609 : en:8. The foundation
00:48:13.474 : en:9. John the Baptist
00:53:48.767 : en:10."Speak to me in human words"
01:01:41.823 : en:11. Return to the desert
01:09:16.486 : en:12. Casting out devils and working cures
01:15:00.413 : en:13. Rejected at Nazareth
01:19:25.219 : en:14. Lazarus
01:23:37.387 : en:15. The saint of blasphemy
01:29:09.511 : en:16. The shadow of the cross
01:33:57.799 : en:17."King of the Jews"
01:37:49.947 : en:18. Waiting for the sign
01:43:46.554 : en:19. Passover/The Last Supper
01:48:22.538 : en:20."Do I have to die?"
01:53:54.911 : en:21. Pontius Pilate
01:58:24.180 : en:22. Golgotha
02:05:07.667 : en:23."Why have you forsaken me?"
02:09:46.570 : en:24. The world of God
02:18:04.359 : en:25."There's only one woman in the world"
02:22:04.891 : en:26. Paul
02:28:33.238 : en:27. Moving on
02:37:03.205 : en:28."It is accomplished"
02:39:37.860 : en:29. Credits
Скриншоты
BD CEE vs Criterion
Дополнительно
Отечественные аудио дорожки из раздач: Позитив-Мультимедия, BD CEE, UPR, НТВ+, Михалев. Авторам спасибо.

_________________
Показать сообщения:    

Текущее время: Сегодня 20:58

Часовой пояс: GMT



Вы не можете начинать темы
Вы не можете отвечать на сообщения
Вы не можете редактировать свои сообщения
Вы не можете удалять свои сообщения
Вы не можете голосовать в опросах
Вы не можете прикреплять файлы к сообщениям
Вы не можете скачивать файлы