Важное объявление!
У Нас Все раздачи мультитрекерные, при нуле пиров в релизах, можете смело вставать на закачку!
 
Автор Сообщение

Роман Беринг

Стаж:
3 года 8 месяцев
Сообщений:
12
Вне форума [Профиль] [ЛС]

Год выпуска: 2013
Производство: Великобритания, США / Fox Searchlight Pictures, Indian Paintbrush, Scott Free Productions
Жанр: Триллер, драма, детектив
Продолжительность: 01:38:55
Перевод: Профессиональный (многоголосый закадровый) лицензия
Субтитры: Английские, русские (нотабеноид)-Режиссер: Пак Чхан Ук / Park Chan Wook
В ролях: Миа Васиковска, Мэттью Гуд, Николь Кидман, Дэвид Элфорд, Пег Аллен, Лорен Э., Роман Филлис, Соммервиль Хармони Корин, Лукас Тилл, Олден Эйренрайк
О фильме:
В день похорон преуспевающего архитектора Ричарда Стокера к родственникам усопшего приезжает его брат, Чарли Стокер, приходящийся заодно дядей девушке по имени Индия. Мать девушки предлагает дяде остаться на какое-то время. Но ни мать, ни Индия, не догадываются, чем для них обернётся присутствие в доме дядюшки Чарли и как переменится в результате невинная Индия. Вот только такая ли она уж невинная…?
-Бюджет: $12 000 000- -Качество: BDRip-AVC [Stoker.2013.1080p.BluRay.AVC.DTS-HD.MA.5.1-PublicHD]
Формат: MKV
Видео: H.264, 960x400 (2,40:1), 23,976 кадр/сек, 1211 Кбит/сек, 0.132 bit/pixel
Аудио#1: 48 kHz, AC3 Dolby Digital, 3/2 (L,C,R,l,r) + LFE ch, 448.00 kbps | RUS
Аудио#2: 48 kHz, AC3 Dolby Digital, 3/2 (L,C,R,l,r) + LFE ch, 448.00 kbps | ENG
-Автор рипа: -

MI

Общее
Уникальный идентификатор : 227722767308804793777930241059364007138 (0xAB51CF45BD0FBC1D8BBA3454CB03ECE2)
Полное имя : Porochnyje.Igry.2013.P.BDRip.x264.potroks.mkv
Формат : Matroska
Версия формата : Version 4 / Version 2
Размер файла : 1,46 Гбайт
Продолжительность : 1 ч. 38 м.
Общий поток : 2109 Кбит/сек
Название фильма : -=POTROKS=-
Дата кодирования : UTC 2013-07-09 18:14:08
Программа кодирования : mkvmerge v5.9.0 ('On The Loose') built on Dec 15 2012 16:39:58
Библиотека кодирования : libebml v1.3.0 + libmatroska v1.4.0
Видео
Идентификатор : 1
Формат : AVC
Формат/Информация : Advanced Video Codec
Профиль формата : High@L4.1
Параметр CABAC формата : Да
Параметр ReFrames формата : 12 кадров
Идентификатор кодека : V_MPEG4/ISO/AVC
Продолжительность : 1 ч. 38 м.
Битрейт : 1211 Кбит/сек
Ширина : 960 пикселей
Высота : 400 пикселей
Соотношение сторон : 2,40:1
Режим частоты кадров : Постоянный
Частота кадров : 23,976 кадра/сек
Цветовое пространство : YUV
Субдискретизация насыщенности : 4:2:0
Битовая глубина : 8 бит
Тип развёртки : Прогрессивная
Бит/(Пиксели*Кадры) : 0.132
Размер потока : 829 Мбайт (56%)
Заголовок : Stoker
Библиотека кодирования : x264 core 125 r2208 d9d2288
Настройки программы : cabac=1 / ref=12 / deblock=1:-3:-3 / analyse=0x3:0x133 / me=umh / subme=11 / psy=1 / psy_rd=0.99:0.00 / mixed_ref=1 / me_range=48 / chroma_me=1 / trellis=2 / 8x8dct=1 / cqm=0 / deadzone=21,11 / fast_pskip=0 / chroma_qp_offset=-2 / threads=9 / lookahead_threads=1 / sliced_threads=0 / nr=0 / decimate=1 / interlaced=0 / bluray_compat=0 / constrained_intra=0 / bframes=13 / b_pyramid=2 / b_adapt=2 / b_bias=0 / direct=3 / weightb=1 / open_gop=0 / weightp=2 / keyint=240 / keyint_min=23 / scenecut=40 / intra_refresh=0 / rc_lookahead=150 / rc=2pass / mbtree=1 / bitrate=1211 / ratetol=1.0 / qcomp=0.70 / qpmin=0 / qpmax=69 / qpstep=4 / cplxblur=20.0 / qblur=0.5 / vbv_maxrate=20000 / vbv_bufsize=20000 / nal_hrd=none / ip_ratio=1.35 / aq=2:0.90
Язык : English
Default : Да
Forced : Нет
Аудио #1
Идентификатор : 2
Формат : AC-3
Формат/Информация : Audio Coding 3
Расширение режима : CM (complete main)
Параметр Endianness формата : Big
Идентификатор кодека : A_AC3
Продолжительность : 1 ч. 38 м.
Вид битрейта : Постоянный
Битрейт : 448 Кбит/сек
Каналы : 6 каналов
Расположение каналов : Front: L C R, Side: L R, LFE
Частота : 48,0 КГц
Битовая глубина : 16 бит
Метод сжатия : С потерями
Размер потока : 317 Мбайт (21%)
Заголовок : MVO | DD 5.1 @ 448 kbps - Blu-ray EUR
Язык : Russian
Default : Да
Forced : Да
Аудио #2
Идентификатор : 3
Формат : AC-3
Формат/Информация : Audio Coding 3
Расширение режима : CM (complete main)
Параметр Endianness формата : Big
Идентификатор кодека : A_AC3
Продолжительность : 1 ч. 38 м.
Вид битрейта : Постоянный
Битрейт : 448 Кбит/сек
Каналы : 6 каналов
Расположение каналов : Front: L C R, Side: L R, LFE
Частота : 48,0 КГц
Битовая глубина : 16 бит
Метод сжатия : С потерями
Размер потока : 317 Мбайт (21%)
Заголовок : Original | DD 5.1 @ 448 kbps
Язык : English
Default : Нет
Forced : Нет
Текст #1
Идентификатор : 4
Формат : UTF-8
Идентификатор кодека : S_TEXT/UTF8
Идентификатор кодека/Информация : UTF-8 Plain Text
Язык : English
Default : Нет
Forced : Нет
Текст #2
Идентификатор : 5
Формат : UTF-8
Идентификатор кодека : S_TEXT/UTF8
Идентификатор кодека/Информация : UTF-8 Plain Text
Заголовок : Notabenoid
Язык : Russian
Default : Нет
Forced : Нет

Скриншоты

-Источник:


Последний раз редактировалось: Роман Беринг (2013-07-14 15:53), всего редактировалось 3 раз(а)

bot

Вне форума [Профиль] [ЛС]

Топик был перенесен из форума Зарубежное кино в форум Зарубежные фильмы
Роман Беринг
 
Показать сообщения:    

Текущее время: Сегодня 10:51

Часовой пояс: GMT



Вы не можете начинать темы
Вы не можете отвечать на сообщения
Вы не можете редактировать свои сообщения
Вы не можете удалять свои сообщения
Вы не можете голосовать в опросах
Вы не можете прикреплять файлы к сообщениям
Вы не можете скачивать файлы