Важное объявление!
У Нас Все раздачи мультитрекерные, при нуле пиров в релизах, можете смело вставать на закачку!
 
Автор Сообщение

mihis

[Профиль] [ЛС]

Попутчик / The Hitcher«Он снова на дороге...»
Год выпуска: 2007
Страна: США, Platinum Dunes, Intrepid Pictures, Focus Features
Жанр: Боевик, триллер, криминал
Продолжительность: 01:24:13
Перевод: Профессиональный (полное дублирование) + 2 Профессиональный (многоголосый, закадровый) + Авторский (одноголосый, закадровый) Юрий Немахов + Украинский + Оригинал
Субтитры: Русские, Английские
Режиссер: Дэйв Мейерс
В ролях: Шон Бин, София Буш, Захари Найтон, Нил МакДонаф, Кайл Дэвис, Скип О`Брайэн, Дэнни Болеро, Джеффри Хатчинсон, Яра Мартинез
Описание: Молодая пара несется на автомобиле по бескрайним просторам Америки. Кругом темнота, дождь льет как из ведра и видно лишь небольшой участок шоссе, освещенный фарами. Внезапно перед ними возникает темный силуэт человека, голосующего на дороге! Парень хочет подвезти его, но девушка категорически против. Видимо, женская интуиция подсказывает ей, что это знакомство не сулит ничего хорошего. Ребята уезжают прочь. К сожалению, познакомиться с ним все-таки придется… Попутчик оказывается безумным маньяком, который хладнокровно убивает всех, кто встречается на пути влюбленной пары. И самое страшное в этой ситуации — абсолютно непонятны его мотивы.

Качество: BDRip-AVC
Формат: MKV
Видео кодек: H.264
Аудио кодек: AC3
Видео: AVC, 1024x424 (2.40:1), 23.976 fps, 2 500 Kbps (0.240 bit/pixel)
Аудио #1: AC-3, 48.0 KHz, 6 ch, 448 Kbps, CBR Dub
Аудио #2: AC-3, 48.0 KHz, 6 ch, 384 Kbps, CBR MVO Киномания
Аудио #3: AC-3, 48.0 KHz, 6 ch, 448 Kbps, CBR MVO
Аудио #4: AC-3, 48.0 KHz, 6 ch, 448 Kbps, CBR AVO Юрий Немахов
Аудио #5: AC-3, 48.0 KHz, 6 ch, 448 Kbps, CBR Ukr
Аудио #6: AC-3, 48.0 KHz, 6 ch, 448 Kbps, CBR Eng

Интересно

Римейк одноименного триллера 1986 года Роберта Хармона с Рутгером Хауэром и Дженнифер Джейсон Ли.
Рутгер Хауэр, игравший Джона Райдера в оригинальной версии «Попутчика», должен был появиться в камео, но в итоге отказался.
Шон Бин специально почти не общался с молодыми актёрами, чтобы дистанцироваться от них и лучше вжиться в образ маньяка-незнакомца.

MediaInfo

Общее
Уникальный идентификатор : 185931287046371511226661173269988341650 (0x8BE11036886E6809A134E704EF4B7792)
Полное имя : D:\Video\Poputchik.2007.x264.BDRip.(AVC).mkv
Формат : Matroska
Версия формата : Version 1
Размер файла : 3,02 Гбайт
Продолжительность : 1 ч. 24 м.
Общий поток : 5121 Кбит/сек
Дата кодирования : UTC 2013-08-08 21:37:06
Программа кодирования : mkvmerge v2.1.0 ('Another Place To Fall') built on Aug 19 2007 13:40:07
Библиотека кодирования : libebml v0.7.7 + libmatroska v0.8.1
Видео
Идентификатор : 1
Формат : AVC
Формат/Информация : Advanced Video Codec
Профиль формата : High@L4.1
Параметр CABAC формата : Да
Параметр ReFrames формата : 8 кадров
Идентификатор кодека : V_MPEG4/ISO/AVC
Продолжительность : 1 ч. 24 м.
Битрейт : 2500 Кбит/сек
Ширина : 1024 пикселя
Высота : 424 пикселя
Соотношение сторон : 2,40:1
Режим частоты кадров : Постоянный
Частота кадров : 23,976 кадра/сек
Цветовое пространство : YUV
Субдискретизация насыщенности : 4:2:0
Битовая глубина : 8 бит
Тип развёртки : Прогрессивная
Бит/(Пиксели*Кадры) : 0.240
Размер потока : 1,41 Гбайт (47%)
Библиотека кодирования : x264 core 125 r2200 999b753
Настройки программы : cabac=1 / ref=8 / deblock=1:-2:-2 / analyse=0x3:0x113 / me=umh / subme=9 / psy=1 / psy_rd=1.00:0.00 / mixed_ref=1 / me_range=32 / chroma_me=1 / trellis=2 / 8x8dct=1 / cqm=0 / deadzone=21,11 / fast_pskip=0 / chroma_qp_offset=-2 / threads=6 / lookahead_threads=1 / sliced_threads=0 / nr=0 / decimate=0 / interlaced=0 / bluray_compat=0 / constrained_intra=0 / bframes=8 / b_pyramid=2 / b_adapt=2 / b_bias=0 / direct=3 / weightb=1 / open_gop=0 / weightp=2 / keyint=240 / keyint_min=23 / scenecut=40 / intra_refresh=0 / rc=2pass / mbtree=0 / bitrate=2500 / ratetol=1.0 / qcomp=0.60 / qpmin=0 / qpmax=69 / qpstep=4 / cplxblur=20.0 / qblur=0.5 / ip_ratio=1.40 / pb_ratio=1.30 / aq=1:1.10
Язык : English
Default : Да
Forced : Нет
Аудио #1
Идентификатор : 2
Формат : AC-3
Формат/Информация : Audio Coding 3
Расширение режима : CM (complete main)
Параметр Endianness формата : Big
Идентификатор кодека : A_AC3
Продолжительность : 1 ч. 24 м.
Вид битрейта : Постоянный
Битрейт : 448 Кбит/сек
Каналы : 6 каналов
Расположение каналов : Front: L C R, Side: L R, LFE
Частота : 48,0 КГц
Битовая глубина : 16 бит
Метод сжатия : С потерями
Размер потока : 270 Мбайт (9%)
Заголовок : Дублированный
Язык : Russian
Default : Да
Forced : Нет
Аудио #2
Идентификатор : 3
Формат : AC-3
Формат/Информация : Audio Coding 3
Расширение режима : CM (complete main)
Параметр Endianness формата : Big
Идентификатор кодека : A_AC3
Продолжительность : 1 ч. 24 м.
Вид битрейта : Постоянный
Битрейт : 384 Кбит/сек
Каналы : 6 каналов
Расположение каналов : Front: L C R, Side: L R, LFE
Частота : 48,0 КГц
Битовая глубина : 16 бит
Метод сжатия : С потерями
Размер потока : 232 Мбайт (7%)
Заголовок : Профессиональный многоголосый (Киномания)
Язык : Russian
Default : Нет
Forced : Нет
Аудио #3
Идентификатор : 4
Формат : AC-3
Формат/Информация : Audio Coding 3
Расширение режима : CM (complete main)
Параметр Endianness формата : Big
Идентификатор кодека : A_AC3
Продолжительность : 1 ч. 24 м.
Вид битрейта : Постоянный
Битрейт : 448 Кбит/сек
Каналы : 6 каналов
Расположение каналов : Front: L C R, Side: L R, LFE
Частота : 48,0 КГц
Битовая глубина : 16 бит
Метод сжатия : С потерями
Размер потока : 270 Мбайт (9%)
Заголовок : Профессиональный многоголосый
Язык : Russian
Default : Нет
Forced : Нет
Аудио #4
Идентификатор : 5
Формат : AC-3
Формат/Информация : Audio Coding 3
Расширение режима : CM (complete main)
Параметр Endianness формата : Big
Идентификатор кодека : A_AC3
Продолжительность : 1 ч. 24 м.
Вид битрейта : Постоянный
Битрейт : 448 Кбит/сек
Каналы : 6 каналов
Расположение каналов : Front: L C R, Side: L R, LFE
Частота : 48,0 КГц
Битовая глубина : 16 бит
Метод сжатия : С потерями
Размер потока : 270 Мбайт (9%)
Заголовок : Авторский одноголосый (Юрий Немахов)
Язык : Russian
Default : Нет
Forced : Нет
Аудио #5
Идентификатор : 6
Формат : AC-3
Формат/Информация : Audio Coding 3
Расширение режима : CM (complete main)
Параметр Endianness формата : Big
Идентификатор кодека : A_AC3
Продолжительность : 1 ч. 24 м.
Вид битрейта : Постоянный
Битрейт : 448 Кбит/сек
Каналы : 6 каналов
Расположение каналов : Front: L C R, Side: L R, LFE
Частота : 48,0 КГц
Битовая глубина : 16 бит
Метод сжатия : С потерями
Размер потока : 270 Мбайт (9%)
Заголовок : Украинский
Язык : Ukrainian
Default : Нет
Forced : Нет
Аудио #6
Идентификатор : 7
Формат : AC-3
Формат/Информация : Audio Coding 3
Расширение режима : CM (complete main)
Параметр Endianness формата : Big
Идентификатор кодека : A_AC3
Продолжительность : 1 ч. 24 м.
Вид битрейта : Постоянный
Битрейт : 448 Кбит/сек
Каналы : 6 каналов
Расположение каналов : Front: L C R, Side: L R, LFE
Частота : 48,0 КГц
Битовая глубина : 16 бит
Метод сжатия : С потерями
Размер потока : 270 Мбайт (9%)
Заголовок : Оригинал
Язык : English
Default : Нет
Forced : Нет
Текст #1
Идентификатор : 8
Формат : UTF-8
Идентификатор кодека : S_TEXT/UTF8
Идентификатор кодека/Информация : UTF-8 Plain Text
Заголовок : Русские
Язык : Russian
Default : Да
Forced : Нет
Текст #2
Идентификатор : 9
Формат : UTF-8
Идентификатор кодека : S_TEXT/UTF8
Идентификатор кодека/Информация : UTF-8 Plain Text
Заголовок : Русские (Киномания)
Язык : Russian
Default : Нет
Forced : Нет
Текст #3
Идентификатор : 10
Формат : UTF-8
Идентификатор кодека : S_TEXT/UTF8
Идентификатор кодека/Информация : UTF-8 Plain Text
Заголовок : Английские
Язык : English
Default : Нет
Forced : Нет
Текст #4
Идентификатор : 11
Формат : UTF-8
Идентификатор кодека : S_TEXT/UTF8
Идентификатор кодека/Информация : UTF-8 Plain Text
Заголовок : Английские (SDH)
Язык : English
Default : Нет
Forced : Нет
Меню
00:00:00.000 : en:00:00:00.000
00:05:21.905 : en:00:05:21.905
00:13:10.832 : en:00:13:10.832
00:20:52.293 : en:00:20:52.293
00:30:39.713 : en:00:30:39.713
00:40:33.598 : en:00:40:33.598
00:48:47.174 : en:00:48:47.174
00:54:58.712 : en:00:54:58.712
01:00:57.904 : en:01:00:57.904
01:11:00.423 : en:01:11:00.423
01:18:41.508 : en:01:18:41.508
 
Показать сообщения:    

Текущее время: Сегодня 07:39

Часовой пояс: GMT



Вы не можете начинать темы
Вы не можете отвечать на сообщения
Вы не можете редактировать свои сообщения
Вы не можете удалять свои сообщения
Вы не можете голосовать в опросах
Вы не можете прикреплять файлы к сообщениям
Вы не можете скачивать файлы