Важное объявление!
У Нас Все раздачи мультитрекерные, при нуле пиров в релизах, можете смело вставать на закачку!
 
Автор Сообщение

HUNTER

Стаж:
4 года 4 месяца
Сообщений:
56822

Репутация: 101

[+] [-]
Вне форума [Профиль] [ЛС]

Поморы.
Зимнего берега народ.
Ч.1.

Страна: Россия
Жанр: Документальный
Продолжительность: 00:52:56
Год выпуска: 2013
Язык: Русский
Перевод: Не требуется
Режиссер / Телекомпания: Дмитрий Васюков
Описание: Поморы. Зимнего берега народ. Ч.1.
Качество: WEB-Rip
Формат: AVI
Видео кодек: XviD
Аудио кодек: MP3
Видео: 640 x 352 (1.818) at 25.000 fps: MPEG-4 Visual at 1 878 Кбит/сек
Аудио: 2 канала, 44,1 КГц: MPEG Audio at 128 Кбит/сек

Скриншоты

MediaInfo

General
Complete name : C:\Documents and Settings\User\Рабочий стол\Поморы. Зимнего берега народ. Ч.1 (реж. Д.Васюков, 2013).avi
Format : AVI
Format/Info : Audio Video Interleave
File size : 763 MiB
Duration : 52mn 55s
Overall bit rate : 2 015 Kbps
Writing library : VirtualDub build 32842/release
Video
ID : 0
Format : MPEG-4 Visual
Format profile : Advanced Simple@L5
Format settings, BVOP : 2
Format settings, QPel : No
Format settings, GMC : No warppoints
Format settings, Matrix : Default (H.263)
Muxing mode : Packed bitstream
Codec ID : XVID
Codec ID/Hint : XviD
Duration : 52mn 55s
Bit rate : 1 878 Kbps
Width : 640 pixels
Height : 352 pixels
Display aspect ratio : 16:9
Frame rate : 25.000 fps
Color space : YUV
Chroma subsampling : 4:2:0
Bit depth : 8 bits
Scan type : Progressive
Compression mode : Lossy
Bits/(Pixel*Frame) : 0.333
Stream size : 711 MiB (93%)
Writing library : XviD 64
Audio
ID : 1
Format : MPEG Audio
Format version : Version 1
Format profile : Layer 3
Mode : Joint stereo
Codec ID : 55
Codec ID/Hint : MP3
Duration : 52mn 55s
Bit rate mode : Constant
Bit rate : 128 Kbps
Channel(s) : 2 channels
Sampling rate : 44.1 KHz
Compression mode : Lossy
Stream size : 48.3 MiB (6%)
Alignment : Split accross interleaves
Interleave, duration : 40 ms (1.00 video frame)
Interleave, preload duration : 500 ms

_________________
Показать сообщения:    

Текущее время: Сегодня 01:10

Часовой пояс: GMT



Вы не можете начинать темы
Вы не можете отвечать на сообщения
Вы не можете редактировать свои сообщения
Вы не можете удалять свои сообщения
Вы не можете голосовать в опросах
Вы не можете прикреплять файлы к сообщениям
Вы не можете скачивать файлы