Важное объявление!
У Нас Все раздачи мультитрекерные, при нуле пиров в релизах, можете смело вставать на закачку!
 
Автор Сообщение

HUNTER

Стаж:
4 года 4 месяца
Сообщений:
56755

Репутация: 101

[+] [-]
Вне форума [Профиль] [ЛС]

Полтергейст / Poltergeist
«They know what scares you»
Год выпуска: 2015
Страна: США, Канада
Производство: Fox 2000 Pictures, Ghost House Pictures, Metro-Goldwyn-Mayer (MGM), TSG Entertainment, Vertigo Entertainment
Жанр: Ужасы, триллер
Продолжительность: 01:41:17
Перевод: Профессиональный (дублированный) | iTunes
Оригинальная аудиодорожка: Английский
Субтитры: Русские, украинские, английские
Режиссёр: Гил Кинан
В ролях: Сэм Рокуэлл, Розмари ДеУитт, Саксон Шарбино, Кайл Кэтлетт, Кеннеди Клементс, Джаред Харрис, Джейн Адамс, Сьюзэн Хэйард, Николас Браун, Карен Ивани и др.
Описание: Когда страшные призраки забирают младшую дочь, семье приходится объединиться, чтобы спасти ее...


Сэмпл
Качество: WEB-DL 720p
Формат: MKV
Видео: MPEG-4 AVC: ~4000 kbps / 1280x532 / 23.976 fps / 2.40:1
Аудио: Russian: AC3 / 5.1 / 48 kHz / 384 kbps | iTunes
Аудио: Ukrainian: AAC / 2.0 / 48 kHz / 160 kbps | iTunes
Аудио: English: AC3 / 5.1 / 48 kHz / 384 kbps | Оригинальный (iTunes US)

MediaInfoXP

GeneralUnique ID : 180012051980462568656073852465446696596 (0x876D0F646A7E7C73A53C5B3361FCB694)Complete name : F:\Poltergeist.2015.Extended.720p.WEB-DL.Rus.Ukr.Eng.x264-iTunes.mkvFormat : MatroskaFormat version : Version 2File size : 3.47 GiBDuration : 1h 41mnOverall bit rate : 4 907 KbpsMovie name : Poltergeist (2015) [Extended Cut] - Release for HDCLUBEncoded date : UTC 2015-09-04 10:56:46Writing application : mkvmerge v3.4.0 ('Rapunzel') built on May 15 2010 09:38:20Writing library : libebml v0.8.0 + libmatroska v0.9.0
VideoID : 1Format : AVCFormat/Info : Advanced Video CodecFormat profile : Main@L3.1Format settings, CABAC : NoFormat settings, ReFrames : 2 framesCodec ID : V_MPEG4/ISO/AVCDuration : 1h 41mnWidth : 1 280 pixelsHeight : 532 pixelsDisplay aspect ratio : 2.40:1Frame rate mode : ConstantFrame rate : 23.976 fpsColor space : YUVChroma subsampling : 4:2:0Bit depth : 8 bitsScan type : ProgressiveTitle : Poltergeist (2015) [Extended Cut] - Release for HDCLUBLanguage : EnglishDefault : YesForced : NoColor range : LimitedColor primaries : BT.709Transfer characteristics : BT.709Matrix coefficients : BT.709
Audio #1ID : 2Format : AC-3Format/Info : Audio Coding 3Mode extension : CM (complete main)Format settings, Endianness : BigCodec ID : A_AC3Duration : 1h 41mnBit rate mode : ConstantBit rate : 384 KbpsChannel(s) : 6 channelsChannel positions : Front: L C R, Side: L R, LFESampling rate : 48.0 KHzCompression mode : LossyStream size : 278 MiB (8%)Title : AC3 5.1 @ 384 kbps - DUB, iTunesLanguage : RussianDefault : YesForced : No
Audio #2ID : 3Format : AACFormat/Info : Advanced Audio CodecFormat profile : LCCodec ID : A_AACDuration : 1h 41mnChannel(s) : 2 channelsChannel positions : Front: L RSampling rate : 48.0 KHzCompression mode : LossyTitle : AAC 2.0 @ 160 kbps - DUB, iTunesLanguage : UkrainianDefault : NoForced : No
Audio #3ID : 4Format : AC-3Format/Info : Audio Coding 3Mode extension : CM (complete main)Format settings, Endianness : BigCodec ID : A_AC3Duration : 1h 41mnBit rate mode : ConstantBit rate : 384 KbpsChannel(s) : 6 channelsChannel positions : Front: L C R, Side: L R, LFESampling rate : 48.0 KHzCompression mode : LossyStream size : 278 MiB (8%)Title : AC3 5.1 @ 384 kbpsLanguage : EnglishDefault : NoForced : No
Text #1ID : 5Format : UTF-8Codec ID : S_TEXT/UTF8Codec ID/Info : UTF-8 Plain TextTitle : iTunesLanguage : RussianDefault : NoForced : No
Text #2ID : 6Format : UTF-8Codec ID : S_TEXT/UTF8Codec ID/Info : UTF-8 Plain TextTitle : iTunesLanguage : UkrainianDefault : NoForced : No
Text #3ID : 7Format : UTF-8Codec ID : S_TEXT/UTF8Codec ID/Info : UTF-8 Plain TextTitle : iTunesLanguage : EnglishDefault : NoForced : No
Menu00:00:00.000 : en:100:04:51.000 : en:200:09:49.000 : en:300:16:20.000 : en:400:20:25.000 : en:500:22:27.000 : en:600:26:24.000 : en:700:29:54.000 : en:800:34:58.000 : en:900:37:20.000 : en:1000:41:33.000 : en:1100:46:46.000 : en:1200:49:48.000 : en:1300:53:32.000 : en:1400:59:59.000 : en:1501:04:19.000 : en:1601:06:33.000 : en:1701:09:30.000 : en:1801:12:27.000 : en:1901:15:56.000 : en:2001:19:26.000 : en:2101:25:12.000 : en:2201:29:45.000 : en:2301:34:50.000 : en:24

Скриншот с названием фильма

Название не показано.

Скриншоты


_________________
Показать сообщения:    

Текущее время: Сегодня 10:48

Часовой пояс: GMT



Вы не можете начинать темы
Вы не можете отвечать на сообщения
Вы не можете редактировать свои сообщения
Вы не можете удалять свои сообщения
Вы не можете голосовать в опросах
Вы не можете прикреплять файлы к сообщениям
Вы не можете скачивать файлы