Важное объявление!
У Нас Все раздачи мультитрекерные, при нуле пиров в релизах, можете смело вставать на закачку!
 
Автор Сообщение

HUNTER

Стаж:
4 года 4 месяца
Сообщений:
56829

Репутация: 101

[+] [-]
Вне форума [Профиль] [ЛС]

Полный контакт- -Страна: Россия
Жанр: комедия
Год выпуска: 2011
Производство: «"Кинокомпания «Чипер»»
Продолжительность: 01:16:33
Оригинальная аудиодорожка: русский
Cубтитры: нет-Режиссер: Николай Карман-В ролях:
Ирина Безрукова, Владислав Петровский, Агния Кузнецова, Эвелина Блёданс, Виктор Цекало, Андрей Гайдулян, Наталья Василева, Олег Сорокин, Дмитрий Гоголин, Анатолий Василев, Владимир Лекус, Станислав Ворхинцев, Нина Карман, Валентина Архипова, Октябрина Головачева, Екатерина Мусаткина, Екатерина Казаченок, Ирина Высоцкая, Ольга Ямщикова, Андрей Муханов, Лиза Баторевич, Юлия Рыжкина, Людмила Семкова, Анна Ямщикова, Карина Тернющенко, Юлия Медведникова, Наталья Меренкова, Александр Бабуркин, Валентина Зыкина, Ирина Кузьмина, Елизавета Цветкова-Описание:
Марина — успешная деловая женщина все свое время посвящает работе и постепенно теряет контакт с повзрослевшей 17-летней дочерью Машей, которая все свое свободное время проводит в Интернете. Больше всего Маша любит зависать и развлекаться на сайтах знакомств. Марина постепенно понимает, что теряет контроль над дочерью и знакомится с ней на том же сайте под именем Сергея Смирнова — своей первой любви. Поможет ли обман найти путь к сердцу дочери или Марина найдет другое решение…-Возраст: 16+-Качество: HDTV (1080i)
Формат: TS
Видео кодек: AVC
Аудио кодек: MPEG Audio 2

Видео: AVC, 1920 х 1080 (16:9), 25,000 кадр/сек, 7 900 Кбит/сек, 0.152 bit/pixel
Аудио: MPEG Audio 2, 48000 Hz, 192 Kbps, 2 канала
-

MediaInfo

General
ID : 1 (0x1)
Complete name : D:\Раздачи\Полный контакт HDTV (1080i)\Полный контакт HDTV (1080i).ts
Format : MPEG-TS
File size : 4.61 GiB
Duration : 1h 16mn
Overall bit rate mode : Variable
Overall bit rate : 8 627 Kbps
Video
ID : 256 (0x100)
Menu ID : 1234 (0x4D2)
Format : AVC
Format/Info : Advanced Video Codec
Format profile : High@L4.1
Format settings, CABAC : Yes
Format settings, ReFrames : 3 frames
Format settings, GOP : M=3, N=33
Codec ID : 27
Duration : 1h 16mn
Bit rate mode : Constant
Bit rate : 7 900 Kbps
Width : 1 920 pixels
Height : 1 080 pixels
Display aspect ratio : 16:9
Frame rate : 25.000 fps
Standard : PAL
Color space : YUV
Chroma subsampling : 4:2:0
Bit depth : 8 bits
Scan type : Progressive
Bits/(Pixel*Frame) : 0.152
Stream size : 4.18 GiB (91%)
Color range : Limited
Color primaries : BT.709
Transfer characteristics : BT.709
Matrix coefficients : BT.709
Audio #1
ID : 257 (0x101)
Menu ID : 1234 (0x4D2)
Format : MPEG Audio
Format version : Version 1
Format profile : Layer 2
Codec ID : 3
Duration : 1h 16mn
Bit rate mode : Constant
Bit rate : 192 Kbps
Channel(s) : 2 channels
Sampling rate : 48.0 KHz
Compression mode : Lossy
Stream size : 105 MiB (2%)
Language : English
Audio #2
ID : 258 (0x102)
Menu ID : 1234 (0x4D2)
Format : MPEG Audio
Format version : Version 1
Format profile : Layer 2
Codec ID : 3
Duration : 1h 16mn
Bit rate mode : Constant
Bit rate : 192 Kbps
Channel(s) : 2 channels
Sampling rate : 48.0 KHz
Compression mode : Lossy
Stream size : 105 MiB (2%)
Language : English

Скриншоты


-Раздаю до первых 5-ти скачавших, на раздачи не возвращаюсь...-

_________________
Показать сообщения:    

Текущее время: Сегодня 16:59

Часовой пояс: GMT



Вы не можете начинать темы
Вы не можете отвечать на сообщения
Вы не можете редактировать свои сообщения
Вы не можете удалять свои сообщения
Вы не можете голосовать в опросах
Вы не можете прикреплять файлы к сообщениям
Вы не можете скачивать файлы