Важное объявление!
У Нас Все раздачи мультитрекерные, при нуле пиров в релизах, можете смело вставать на закачку!
 
Автор Сообщение

mihis

[Профиль] [ЛС]

Полный беспредел / Autoreiji: Biyondo
Год выпуска: 2012
Страна: Япония / Bandai Visual Company, Office Kitano, TV Tokyo
Жанр: Боевик, криминал
Продолжительность: 01:52:21
Перевод: Профессиональный (многоголосый, закадровый) Лицензия + Оригинал
Субтитры: Русские, английские
Режиссер: Такеши Китано
В ролях: Такеши Китано, Рё Касэ, Тошиюки Нишида, Томокадзу Миура, Хирофуми Арай, Ютака Мацусигэ, Акира Накао, Кен Митсуйши, Кента Киритани, Мачико Оно
Описание: Криминальная семья Санно выросла в огромную организацию, чья власть распространилась на политику и крупный легальный бизнес. Амбициозный детектив Катаока при помощи тайных заговоров и грязных трюков провоцирует конфликт Между Санно и их давними врагами Ханабиши, надеясь, что они окончательно уничтожат друг друга. Но козырем в руках Катаоки может стать тот факт, что из тюрьмы готовится выйти Отомо, босс семьи, когда-то раздавленной Санно, которого многие считали мертвым. Неожиданное возвращение Отомо сеет еще больше лжи и предательства между семьям. Невозможно угадать, кто одержит верх в этой свирепой схватке за власть.

Качество: BDRip-AVC
Формат: MKV
Видео кодек: H.264
Аудио кодек: AC3
Видео: MPEG-4 AVC, 2160 Кбит/c, 1024x426, 24.000 кадр/c
Аудио: АС3, 6 ch, 448 Кбит/c Rus, Jap

Награды

Азиатская киноакадемия, 2013 год
Победитель (1):
Лучший режиссер (Такеши Китано)
Номинации (3):
Лучший фильм
Лучший композитор (Кэйити Судзуки)
Лучший монтаж
Венецианский кинофестиваль, 2012 год
Номинации (1):
Золотой лев

MediaInfo

Общее
Уникальный идентификатор : 207624533882207725224448653550034592929 (0x9C3307DBE9196F6E9A7B539C86A7A4A1)
Полное имя : D:Mои раздачиPolnyi.bespredel.2012.BDRip.(AVC)-MediaClub.mkv
Формат : Matroska
Версия формата : Version 2
Размер файла : 2,40 Гбайт
Продолжительность : 1 ч. 52 м.
Общий поток : 3055 Кбит/сек
Название фильма : Полный беспредел (MediaClub-kaspr)
Дата кодирования : UTC 2013-06-15 09:09:53
Программа кодирования : mkvmerge v5.7.0 ('The Whirlwind') built on Aug 7 2012 14:11:40
Библиотека кодирования : libebml v1.2.3 + libmatroska v1.3.0
Видео
Идентификатор : 1
Формат : AVC
Формат/Информация : Advanced Video Codec
Профиль формата : High@L4.1
Параметр CABAC формата : Да
Параметр ReFrames формата : 9 кадров
Идентификатор кодека : V_MPEG4/ISO/AVC
Продолжительность : 1 ч. 52 м.
Битрейт : 2160 Кбит/сек
Ширина : 1024 пикселя
Высота : 426 пикселей
Соотношение сторон : 2,40:1
Режим частоты кадров : Постоянный
Частота кадров : 24,000 кадра/сек
Цветовое пространство : YUV
Субдискретизация насыщенности : 4:2:0
Битовая глубина : 8 бит
Тип развёртки : Прогрессивная
Бит/(Пиксели*Кадры) : 0.206
Размер потока : 1,65 Гбайт (69%)
Заголовок : Полный беспредел (MediaClub-kaspr)
Библиотека кодирования : x264 core 133 r2334 a3ac64b
Настройки программы : cabac=1 / ref=9 / deblock=1:-3:-3 / analyse=0x3:0x133 / me=umh / subme=11 / psy=1 / psy_rd=1.00:0.10 / mixed_ref=1 / me_range=32 / chroma_me=1 / trellis=2 / 8x8dct=1 / cqm=0 / deadzone=21,11 / fast_pskip=0 / chroma_qp_offset=-3 / threads=12 / lookahead_threads=3 / sliced_threads=0 / nr=0 / decimate=0 / interlaced=0 / bluray_compat=0 / constrained_intra=0 / bframes=10 / b_pyramid=2 / b_adapt=2 / b_bias=0 / direct=3 / weightb=1 / open_gop=0 / weightp=2 / keyint=240 / keyint_min=22 / scenecut=40 / intra_refresh=0 / rc=2pass / mbtree=0 / bitrate=2160 / ratetol=1.0 / qcomp=0.60 / qpmin=0 / qpmax=69 / qpstep=4 / cplxblur=20.0 / qblur=0.5 / ip_ratio=1.40 / pb_ratio=1.30 / aq=1:1.00
Default : Да
Forced : Нет
Аудио #1
Идентификатор : 2
Формат : AC-3
Формат/Информация : Audio Coding 3
Расширение режима : CM (complete main)
Параметр Endianness формата : Big
Идентификатор кодека : A_AC3
Продолжительность : 1 ч. 52 м.
Вид битрейта : Постоянный
Битрейт : 448 Кбит/сек
Каналы : 6 каналов
Расположение каналов : Front: L C R, Side: L R, LFE
Частота : 48,0 КГц
Битовая глубина : 16 бит
Метод сжатия : С потерями
Размер потока : 360 Мбайт (15%)
Язык : Russian
Default : Да
Forced : Да
Аудио #2
Идентификатор : 3
Формат : AC-3
Формат/Информация : Audio Coding 3
Расширение режима : CM (complete main)
Параметр Endianness формата : Big
Идентификатор кодека : A_AC3
Продолжительность : 1 ч. 52 м.
Вид битрейта : Постоянный
Битрейт : 448 Кбит/сек
Каналы : 6 каналов
Расположение каналов : Front: L C R, Side: L R, LFE
Частота : 48,0 КГц
Битовая глубина : 16 бит
Метод сжатия : С потерями
Размер потока : 360 Мбайт (15%)
Язык : Japanese
Default : Нет
Forced : Нет
Текст #1
Идентификатор : 4
Формат : UTF-8
Идентификатор кодека : S_TEXT/UTF8
Идентификатор кодека/Информация : UTF-8 Plain Text
Заголовок : Русские
Язык : Russian
Default : Нет
Forced : Нет
Текст #2
Идентификатор : 5
Формат : UTF-8
Идентификатор кодека : S_TEXT/UTF8
Идентификатор кодека/Информация : UTF-8 Plain Text
Заголовок : Английские
Язык : English
Default : Нет
Forced : Нет
Меню
00:00:00.000 : en:Chapter 01
00:00:47.000 : en:Chapter 02
00:12:00.000 : en:Chapter 03
00:23:26.000 : en:Chapter 04
00:34:59.000 : en:Chapter 05
00:48:59.000 : en:Chapter 06
01:07:28.000 : en:Chapter 07
01:21:37.000 : en:Chapter 08
01:38:06.000 : en:Chapter 09
 
Показать сообщения:    

Текущее время: Сегодня 15:03

Часовой пояс: GMT



Вы не можете начинать темы
Вы не можете отвечать на сообщения
Вы не можете редактировать свои сообщения
Вы не можете удалять свои сообщения
Вы не можете голосовать в опросах
Вы не можете прикреплять файлы к сообщениям
Вы не можете скачивать файлы