Важное объявление!
У Нас Все раздачи мультитрекерные, при нуле пиров в релизах, можете смело вставать на закачку!
 
Автор Сообщение

HUNTER

Стаж:
4 года 4 месяца
Сообщений:
56722

Репутация: 101

[+] [-]
Вне форума [Профиль] [ЛС]

Полицейская академия 7: Миссия в Москве / Police Academy: Mission to Moscow-
Год выпуска: 1994
Выпущено: США
Жанр: боевик, комедия, криминал
Продолжительность: 01:22:41
Перевод: Профессиональный (Многоголосый, закадровый) Lazer Video
+ Профессиональный (двухголосый, закадровый) Карусель
+ Профессиональный (двухголосый, закадровый) НТВ/ОРТ/Россия
+ Авторский одноголосый А.Гаврилов
+ Авторский одноголосый Е.Гранкин
+ Авторский одноголосый А.Пронин
+ Одноголосый закадровый Wizard
Субтитры: Russian, English-Режиссер: Алан Меттер / Alan Metter
В ролях: Джордж Гейнс, Майкл Уинслоу, Дэвид Граф, Лесли Истербрук, Дж. У. Бейли, Кристофер Ли, Рон Перлман, Клэр Форлани, Чарли Шлэттер, Ричард Израэль
О фильме: Полицейская академия в Москве! Русский балет. Русская водка. И русская мафия. Самая опасная операция в жизни полицейских академиков! Смогут ли они вернуться живыми?..-DON!
Релиз: by Skoped
Формат: MKV
Видео: 1278x720 at 23.976 fps, x264@L4.1, crf, ~9500 kbps avg
Аудио #01: Russian: 48 kHz, AC3, 3/2 (L,C,R,l,r) ch, ~384.00 kbps avg |Многоголосый закадровый, Lazer Video|
Аудио #02: Russian: 48 kHz, DTS, 2/0 (L,R) ch, ~1510.00 kbps avg |Двухголосый закадровый, Карусель|
Аудио #03: Russian: 48 kHz, AC3, 2/0 (L,R) ch, ~192.00 kbps avg |Двухголосый закадровый, НТВ/ОРТ/Россия|
Аудио #04: Russian: 48 kHz, AC3, 2/0 (L,R) ch, ~192.00 kbps avg |Одноголосый закадровый, А.Гаврилов|
Аудио #05: Russian: 48 kHz, DTS, 2/0 (L,R) ch, ~1510.00 kbps avg |Одноголосый закадровый, Е.Гранкин|
Аудио #06: Russian: 48 kHz, AC3, 1/0 (C) ch, ~192.00 kbps avg |Одноголосый закадровый, А.Пронин|
Аудио #07: Russian: 48 kHz, AC3, 2/0 (L,R) ch, ~192.00 kbps avg |Одноголосый закадровый, Wizard|
Аудио #08: Ukrainian: 48 kHz, AC3, 2/0 (L,R) ch, ~192.00 kbps avg |Многоголосый закадровый, 1+1|
Аудио #09: English: 48 kHz, DTS, 2/0 (L,R) ch, ~1510.00 kbps avg
Семпл-

Скриншоты


-

mInfo


Формат : Matroska
Версия формата : Version 2
Размер файла : 9,14 Гбайт
Продолжительность : 1 ч. 22 м.
Общий поток : 15,8 Мбит/сек
Название фильма : Police Academy: Mission to Moscow (1994) - Release for HDCLUB
Дата кодирования : UTC 2014-02-01 21:36:22
Программа кодирования : mkvmerge v5.8.0 ('No Sleep / Pillow') built on Sep 2 2012 15:37:04
Библиотека кодирования : libebml v1.2.3 + libmatroska v1.3.0
Видео
Идентификатор : 1
Формат : AVC
Формат/Информация : Advanced Video Codec
Профиль формата : High@L4.1
Параметр CABAC формата : Да
Параметр ReFrames формата : 9 кадров
Идентификатор кодека : V_MPEG4/ISO/AVC
Продолжительность : 1 ч. 22 м.
Битрейт : 9638 Кбит/сек
Ширина : 1278 пикселей
Высота : 720 пикселей
Соотношение сторон : 16:9
Режим частоты кадров : Постоянный
Частота кадров : 23,976 кадра/сек
Цветовое пространство : YUV
Субдискретизация насыщенности : 4:2:0
Битовая глубина : 8 бит
Тип развёртки : Прогрессивная
Бит/(Пиксели*Кадры) : 0.437
Размер потока : 5,57 Гбайт (61%)
Заголовок : HDCLUB
Библиотека кодирования : x264 core 140 r2377 1ca7bb9
Настройки программы : cabac=1 / ref=9 / deblock=1:-3:-3 / analyse=0x3:0x133 / me=umh / subme=10 / psy=1 / psy_rd=0.95:0.05 / mixed_ref=1 / me_range=32 / chroma_me=1 / trellis=2 / 8x8dct=1 / cqm=0 / deadzone=6,6 / fast_pskip=0 / chroma_qp_offset=-3 / threads=9 / lookahead_threads=1 / sliced_threads=0 / nr=0 / decimate=0 / interlaced=0 / bluray_compat=0 / constrained_intra=0 / bframes=8 / b_pyramid=2 / b_adapt=2 / b_bias=0 / direct=3 / weightb=1 / open_gop=0 / weightp=2 / keyint=250 / keyint_min=23 / scenecut=40 / intra_refresh=0 / rc=crf / mbtree=0 / crf=17.5 / qcomp=0.65 / qpmin=0 / qpmax=40 / qpstep=4 / ip_ratio=1.30 / pb_ratio=1.20 / aq=1:0.75
Язык : English
Default : Да
Forced : Нет
Коэффициенты матрицы : BT.709
Аудио #1
Идентификатор : 2
Формат : AC-3
Формат/Информация : Audio Coding 3
Расширение режима : CM (complete main)
Параметр Endianness формата : Big
Идентификатор кодека : A_AC3
Продолжительность : 1 ч. 22 м.
Вид битрейта : Постоянный
Битрейт : 384 Кбит/сек
Каналы : 5 каналов
Расположение каналов : Front: L C R, Side: L R
Частота : 48,0 КГц
Битовая глубина : 16 бит
Метод сжатия : С потерями
Размер потока : 227 Мбайт (2%)
Заголовок : AC3 5.0 @ 384 kbps - Многоголосый закадровый, Lazer Video
Язык : Russian
Default : Да
Forced : Нет
Аудио #2
Идентификатор : 3
Формат : DTS
Формат/Информация : Digital Theater Systems
Режим : 16
Параметр Endianness формата : Big
Идентификатор кодека : A_DTS
Продолжительность : 1 ч. 22 м.
Вид битрейта : Постоянный
Битрейт : 1509 Кбит/сек
Каналы : 2 канала
Расположение каналов : Front: L R
Частота : 48,0 КГц
Битовая глубина : 24 бит
Метод сжатия : С потерями
Размер потока : 893 Мбайт (10%)
Заголовок : DTS 2.0 @ 1510 kbps - Двухголосый закадровый, Карусель
Язык : Russian
Default : Нет
Forced : Нет
Аудио #3
Идентификатор : 4
Формат : AC-3
Формат/Информация : Audio Coding 3
Расширение режима : CM (complete main)
Параметр Endianness формата : Big
Идентификатор кодека : A_AC3
Продолжительность : 1 ч. 22 м.
Вид битрейта : Постоянный
Битрейт : 192 Кбит/сек
Каналы : 2 канала
Расположение каналов : Front: L R
Частота : 48,0 КГц
Битовая глубина : 16 бит
Метод сжатия : С потерями
Размер потока : 114 Мбайт (1%)
Заголовок : AC3 2.0 @ 192 kbps - Двухголосый закадровый, НТВ/ОРТ/Россия
Язык : Russian
Default : Нет
Forced : Нет
Аудио #4
Идентификатор : 5
Формат : AC-3
Формат/Информация : Audio Coding 3
Расширение режима : CM (complete main)
Параметр Endianness формата : Big
Идентификатор кодека : A_AC3
Продолжительность : 1 ч. 22 м.
Вид битрейта : Постоянный
Битрейт : 192 Кбит/сек
Каналы : 2 канала
Расположение каналов : Front: L R
Частота : 48,0 КГц
Битовая глубина : 16 бит
Метод сжатия : С потерями
Размер потока : 114 Мбайт (1%)
Заголовок : AC3 2.0 @ 192 kbps - Одноголосый закадровый, А.Гаврилов
Язык : Russian
Default : Нет
Forced : Нет
Аудио #5
Идентификатор : 6
Формат : DTS
Формат/Информация : Digital Theater Systems
Режим : 16
Параметр Endianness формата : Big
Идентификатор кодека : A_DTS
Продолжительность : 1 ч. 22 м.
Вид битрейта : Постоянный
Битрейт : 1509 Кбит/сек
Каналы : 2 канала
Расположение каналов : Front: L R
Частота : 48,0 КГц
Битовая глубина : 24 бит
Метод сжатия : С потерями
Размер потока : 893 Мбайт (10%)
Заголовок : DTS 2.0 @ 1510 kbps - Одноголосый закадровый, Е.Гранкин
Язык : Russian
Default : Нет
Forced : Нет
Аудио #6
Идентификатор : 7
Формат : AC-3
Формат/Информация : Audio Coding 3
Расширение режима : CM (complete main)
Параметр Endianness формата : Big
Идентификатор кодека : A_AC3
Продолжительность : 1 ч. 22 м.
Вид битрейта : Постоянный
Битрейт : 192 Кбит/сек
Каналы : 1 канал
Расположение каналов : Front: C
Частота : 48,0 КГц
Битовая глубина : 16 бит
Метод сжатия : С потерями
Размер потока : 114 Мбайт (1%)
Заголовок : AC3 2.0 @ 192 kbps - Одноголосый закадровый, А.Пронин
Язык : Russian
Default : Нет
Forced : Нет
Аудио #7
Идентификатор : 8
Формат : AC-3
Формат/Информация : Audio Coding 3
Расширение режима : CM (complete main)
Параметр Endianness формата : Big
Идентификатор кодека : A_AC3
Продолжительность : 1 ч. 22 м.
Вид битрейта : Постоянный
Битрейт : 192 Кбит/сек
Каналы : 2 канала
Расположение каналов : Front: L R
Частота : 48,0 КГц
Битовая глубина : 16 бит
Метод сжатия : С потерями
Размер потока : 114 Мбайт (1%)
Заголовок : AC3 2.0 @ 192 kbps - Одноголосый закадровый, Wizard
Язык : Russian
Default : Нет
Forced : Нет
Аудио #8
Идентификатор : 9
Формат : AC-3
Формат/Информация : Audio Coding 3
Расширение режима : CM (complete main)
Параметр Endianness формата : Big
Идентификатор кодека : A_AC3
Продолжительность : 1 ч. 22 м.
Вид битрейта : Постоянный
Битрейт : 192 Кбит/сек
Каналы : 2 канала
Расположение каналов : Front: L R
Частота : 48,0 КГц
Битовая глубина : 16 бит
Метод сжатия : С потерями
Размер потока : 114 Мбайт (1%)
Заголовок : AC3 2.0 @ 192 kbps - Многоголосый закадровый, 1+1
Язык : Russian
Default : Нет
Forced : Нет
Аудио #9
Идентификатор : 10
Формат : DTS
Формат/Информация : Digital Theater Systems
Режим : 16
Параметр Endianness формата : Big
Идентификатор кодека : A_DTS
Продолжительность : 1 ч. 22 м.
Вид битрейта : Постоянный
Битрейт : 1509 Кбит/сек
Каналы : 2 канала
Расположение каналов : Front: L R
Частота : 48,0 КГц
Битовая глубина : 24 бит
Метод сжатия : С потерями
Размер потока : 893 Мбайт (10%)
Заголовок : DTS 2.0 @ 1510 kbps
Язык : English
Default : Нет
Forced : Нет
Текст #1
Идентификатор : 11
Формат : UTF-8
Идентификатор кодека : S_TEXT/UTF8
Идентификатор кодека/Информация : UTF-8 Plain Text
Язык : Russian
Default : Да
Forced : Нет
Текст #2
Идентификатор : 12
Формат : UTF-8
Идентификатор кодека : S_TEXT/UTF8
Идентификатор кодека/Информация : UTF-8 Plain Text
Язык : English
Default : Нет
Forced : Нет
Меню
00:00:00.000 : en:00:00:00.000
00:06:48.241 : en:00:06:48.241
00:09:49.547 : en:00:09:49.547
00:12:20.114 : en:00:12:20.114
00:13:24.512 : en:00:13:24.512
00:15:25.383 : en:00:15:25.383
00:17:47.775 : en:00:17:47.775
00:20:26.559 : en:00:20:26.559
00:23:52.181 : en:00:23:52.181
00:28:12.733 : en:00:28:12.733
00:30:30.203 : en:00:30:30.203
00:33:31.426 : en:00:33:31.426
00:35:35.008 : en:00:35:35.008
00:40:36.934 : en:00:40:36.934
00:41:28.277 : en:00:41:28.277
00:49:23.002 : en:00:49:23.002
00:57:03.670 : en:00:57:03.670
01:02:05.972 : en:01:02:05.972
01:06:39.621 : en:01:06:39.621
01:10:12.458 : en:01:10:12.458
01:13:58.392 : en:01:13:58.392
01:17:58.299 : en:01:17:58.299

-
Цитата:


*** Сохранены оригинальные чаптеры как на Blu-ray.
*** За приобретение дисковых материалов большое спасибо crazy_gringo.
*** Работа со звуком - Volshebnik.
-

_________________
Показать сообщения:    

Текущее время: Сегодня 12:02

Часовой пояс: GMT



Вы не можете начинать темы
Вы не можете отвечать на сообщения
Вы не можете редактировать свои сообщения
Вы не можете удалять свои сообщения
Вы не можете голосовать в опросах
Вы не можете прикреплять файлы к сообщениям
Вы не можете скачивать файлы