Важное объявление!
У Нас Все раздачи мультитрекерные, при нуле пиров в релизах, можете смело вставать на закачку!
 
Автор Сообщение

HUNTER

Стаж:
4 года 4 месяца
Сообщений:
56722

Репутация: 101

[+] [-]
Вне форума [Профиль] [ЛС]

Полицейская академия 4: Граждане в дозоре / Police Academy 4: Citizens on Patrol-
Год выпуска: 1987
Выпущено: США
Жанр: боевик, комедия, криминал
Продолжительность: 01:23:43
Перевод: Профессиональный (полное дублирование) Варус-Видео
+ Профессиональный (многоголосый, закадровый) Россия
+ Профессиональный (многоголосый, закадровый) Lazer Video
+ Профессиональный (двухголосый, закадровый) Карусель
+ Профессиональный (двухголосый, закадровый) НТВ
+ Авторский одноголосый А.Гаврилов (поздняя версия)
+ Авторский одноголосый А.Гаврилов (ранняя версия)
+ Авторский одноголосый Л.Володарский
Субтитры: English-Режиссер: Джим Дрейк / Jim Drake
В ролях: Стив Гуттенберг, Бубба Смит, Майкл Уинслоу, Дэвид Граф, Тим Казурински, Шэрон Стоун, Лесли Истербрук, Мэрион Рэмси, Лэнс Кинси, Дж. У. Бейли
О фильме: Упрямый и предприимчивый Лассард решает усилить безопасность на улице с помощью создания добровольных дружин под названием «Граждане на дежурстве». Угадайте, кто будет инструктировать обывателей? Верно, те же выпускники академии, что принимали «неуд» в своих зачетках за отличные отметки.
Когда конкурент, лейтенант Харрис, наблюдает за этими упражнениями, он решает использовать их для дискредитации Академии. Но наши герои сложили свои коэффициенты умственного развития и поднялись в воздух на бипланах и воздушных шарах: кто-то должен спасать положение!-DON!
Релиз: by Skoped
Формат: MKV
Видео: 1274x720 at 23.976 fps, x264@L4.1, crf, ~10500 kbps avg
Аудио #01: Russian: 48 kHz, AC3, 2/0 (L,R) ch, ~192.00 kbps avg |Дубляж, Варус Видео|
Аудио #02: Russian: 48 kHz, AC3, 2/0 (L,R) ch, ~192.00 kbps avg |Многоголосый закадровый, Россия|
Аудио #03: Russian: 48 kHz, AC3, 3/2 (L,C,R,l,r) ch, ~384.00 kbps avg |Многоголосый закадровый, Lazer Video|
Аудио #04: Russian: 48 kHz, DTS, 1/0 (C) ch, ~755.00 kbps avg |Двухголосый закадровый, Карусель|
Аудио #05: Russian: 48 kHz, AC3, 2/0 (L,R) ch, ~192.00 kbps avg |Двухголосый закадровый, НТВ|
Аудио #06: Russian: 48 kHz, DTS, 1/0 (C) ch, ~755.00 kbps avg |Одноголосый закадровый, А.Гаврилов (позднняя версия)|
Аудио #07: Russian: 48 kHz, AC3, 2/0 (L,R) ch, ~192.00 kbps avg |Одноголосый закадровый, А.Гаврилов (ранняя версия)|
Аудио #08: Ukrainian: 48 kHz, AC3, 2/0 (L,R) ch, ~192.00 kbps avg |Многоголосый закадровый, 1+1|
Аудио #09: English: 48 kHz, DTS, 1/0 (C) ch, ~755.00 kbps avg
Семпл-

Скриншоты


-

mInfo


Формат : Matroska
Версия формата : Version 2
Размер файла : 8,50 Гбайт
Продолжительность : 1 ч. 27 м.
Общий поток : 13,9 Мбит/сек
Название фильма : Police Academy 4: Citizens on Patrol (1987) - Release for HDCLUB
Дата кодирования : UTC 2014-02-01 18:33:41
Программа кодирования : mkvmerge v5.8.0 ('No Sleep / Pillow') built on Sep 2 2012 15:37:04
Библиотека кодирования : libebml v1.2.3 + libmatroska v1.3.0
Видео
Идентификатор : 1
Формат : AVC
Формат/Информация : Advanced Video Codec
Профиль формата : High@L4.1
Параметр CABAC формата : Да
Параметр ReFrames формата : 9 кадров
Идентификатор кодека : V_MPEG4/ISO/AVC
Продолжительность : 1 ч. 27 м.
Битрейт : 10,0 Мбит/сек
Ширина : 1274 пикселя
Высота : 720 пикселей
Соотношение сторон : 16:9
Режим частоты кадров : Постоянный
Частота кадров : 23,976 кадра/сек
Цветовое пространство : YUV
Субдискретизация насыщенности : 4:2:0
Битовая глубина : 8 бит
Тип развёртки : Прогрессивная
Бит/(Пиксели*Кадры) : 0.455
Размер потока : 6,10 Гбайт (72%)
Заголовок : HDCLUB
Библиотека кодирования : x264 core 140 r2377 1ca7bb9
Настройки программы : cabac=1 / ref=9 / deblock=1:-3:-3 / analyse=0x3:0x133 / me=umh / subme=10 / psy=1 / psy_rd=0.95:0.05 / mixed_ref=1 / me_range=32 / chroma_me=1 / trellis=2 / 8x8dct=1 / cqm=0 / deadzone=6,6 / fast_pskip=0 / chroma_qp_offset=-3 / threads=9 / lookahead_threads=1 / sliced_threads=0 / nr=0 / decimate=0 / interlaced=0 / bluray_compat=0 / constrained_intra=0 / bframes=8 / b_pyramid=2 / b_adapt=2 / b_bias=0 / direct=3 / weightb=1 / open_gop=0 / weightp=2 / keyint=250 / keyint_min=23 / scenecut=40 / intra_refresh=0 / rc=crf / mbtree=0 / crf=17.0 / qcomp=0.70 / qpmin=0 / qpmax=40 / qpstep=4 / ip_ratio=1.30 / pb_ratio=1.20 / aq=1:0.75
Язык : English
Default : Да
Forced : Нет
Коэффициенты матрицы : BT.709
Аудио #1
Идентификатор : 2
Формат : AC-3
Формат/Информация : Audio Coding 3
Расширение режима : CM (complete main)
Параметр Endianness формата : Big
Идентификатор кодека : A_AC3
Продолжительность : 1 ч. 27 м.
Вид битрейта : Постоянный
Битрейт : 192 Кбит/сек
Каналы : 2 канала
Расположение каналов : Front: L R
Частота : 48,0 КГц
Битовая глубина : 16 бит
Метод сжатия : С потерями
Размер потока : 120 Мбайт (1%)
Заголовок : AC3 2.0 @ 192 kbps - Дубляж, Варус Видео
Язык : Russian
Default : Да
Forced : Нет
Аудио #2
Идентификатор : 3
Формат : AC-3
Формат/Информация : Audio Coding 3
Расширение режима : CM (complete main)
Параметр Endianness формата : Big
Идентификатор кодека : A_AC3
Продолжительность : 1 ч. 27 м.
Вид битрейта : Постоянный
Битрейт : 192 Кбит/сек
Каналы : 2 канала
Расположение каналов : Front: L R
Частота : 48,0 КГц
Битовая глубина : 16 бит
Метод сжатия : С потерями
Размер потока : 120 Мбайт (1%)
Заголовок : AC3 2.0 @ 192 kbps - Многоголосый закадровый, Россия
Язык : Russian
Default : Нет
Forced : Нет
Аудио #3
Идентификатор : 4
Формат : AC-3
Формат/Информация : Audio Coding 3
Расширение режима : CM (complete main)
Параметр Endianness формата : Big
Идентификатор кодека : A_AC3
Продолжительность : 1 ч. 27 м.
Вид битрейта : Постоянный
Битрейт : 384 Кбит/сек
Каналы : 5 каналов
Расположение каналов : Front: L C R, Side: L R
Частота : 48,0 КГц
Битовая глубина : 16 бит
Метод сжатия : С потерями
Размер потока : 240 Мбайт (3%)
Заголовок : AC3 5.0 @ 384 kbps - Многоголосый закадровый, Lazer Video
Язык : Russian
Default : Нет
Forced : Нет
Аудио #4
Идентификатор : 5
Формат : DTS
Формат/Информация : Digital Theater Systems
Режим : 16
Параметр Endianness формата : Big
Идентификатор кодека : A_DTS
Продолжительность : 1 ч. 27 м.
Вид битрейта : Постоянный
Битрейт : 768 Кбит/сек
Каналы : 1 канал
Расположение каналов : Front: C
Частота : 48,0 КГц
Битовая глубина : 24 бит
Метод сжатия : С потерями
Размер потока : 480 Мбайт (6%)
Заголовок : DTS 1.0 @ 768 kbps - Двухголосый закадровый, Карусель
Язык : Russian
Default : Нет
Forced : Нет
Аудио #5
Идентификатор : 6
Формат : AC-3
Формат/Информация : Audio Coding 3
Расширение режима : CM (complete main)
Параметр Endianness формата : Big
Идентификатор кодека : A_AC3
Продолжительность : 1 ч. 27 м.
Вид битрейта : Постоянный
Битрейт : 192 Кбит/сек
Каналы : 2 канала
Расположение каналов : Front: L R
Частота : 48,0 КГц
Битовая глубина : 16 бит
Метод сжатия : С потерями
Размер потока : 120 Мбайт (1%)
Заголовок : AC3 2.0 @ 192 kbps - Двухголосый закадровый, НТВ
Язык : Russian
Default : Нет
Forced : Нет
Аудио #6
Идентификатор : 7
Формат : DTS
Формат/Информация : Digital Theater Systems
Режим : 16
Параметр Endianness формата : Big
Идентификатор кодека : A_DTS
Продолжительность : 1 ч. 27 м.
Вид битрейта : Постоянный
Битрейт : 768 Кбит/сек
Каналы : 1 канал
Расположение каналов : Front: C
Частота : 48,0 КГц
Битовая глубина : 24 бит
Метод сжатия : С потерями
Размер потока : 480 Мбайт (6%)
Заголовок : DTS 1.0 @ 768 kbps - Одноголосый закадровый, А.Гаврилов (позднняя версия)
Язык : Russian
Default : Нет
Forced : Нет
Аудио #7
Идентификатор : 8
Формат : AC-3
Формат/Информация : Audio Coding 3
Расширение режима : CM (complete main)
Параметр Endianness формата : Big
Идентификатор кодека : A_AC3
Продолжительность : 1 ч. 27 м.
Вид битрейта : Постоянный
Битрейт : 192 Кбит/сек
Каналы : 2 канала
Расположение каналов : Front: L R
Частота : 48,0 КГц
Битовая глубина : 16 бит
Метод сжатия : С потерями
Размер потока : 120 Мбайт (1%)
Заголовок : AC3 2.0 @ 192 kbps - Одноголосый закадровый, А.Гаврилов (ранняя версия)
Язык : Russian
Default : Нет
Forced : Нет
Аудио #8
Идентификатор : 9
Формат : AC-3
Формат/Информация : Audio Coding 3
Расширение режима : CM (complete main)
Параметр Endianness формата : Big
Идентификатор кодека : A_AC3
Продолжительность : 1 ч. 27 м.
Вид битрейта : Постоянный
Битрейт : 192 Кбит/сек
Каналы : 2 канала
Расположение каналов : Front: L R
Частота : 48,0 КГц
Битовая глубина : 16 бит
Метод сжатия : С потерями
Размер потока : 120 Мбайт (1%)
Заголовок : AC3 2.0 @ 192 kbps - Многоголосый закадровый, 1+1
Язык : Ukrainian
Default : Нет
Forced : Нет
Аудио #9
Идентификатор : 10
Формат : DTS
Формат/Информация : Digital Theater Systems
Режим : 16
Параметр Endianness формата : Big
Идентификатор кодека : A_DTS
Продолжительность : 1 ч. 27 м.
Вид битрейта : Постоянный
Битрейт : 768 Кбит/сек
Каналы : 1 канал
Расположение каналов : Front: C
Частота : 48,0 КГц
Битовая глубина : 24 бит
Метод сжатия : С потерями
Размер потока : 480 Мбайт (6%)
Заголовок : DTS 1.0 @ 768 kbps
Язык : English
Default : Нет
Forced : Нет
Текст
Идентификатор : 11
Формат : UTF-8
Идентификатор кодека : S_TEXT/UTF8
Идентификатор кодека/Информация : UTF-8 Plain Text
Язык : English
Default : Да
Forced : Нет
Меню
00:00:00.000 : en:00:00:00.000
00:07:20.148 : en:00:07:20.148
00:10:17.992 : en:00:10:17.992
00:12:32.877 : en:00:12:32.877
00:16:17.101 : en:00:16:17.101
00:21:10.227 : en:00:21:10.227
00:23:19.231 : en:00:23:19.231
00:28:10.147 : en:00:28:10.147
00:32:52.929 : en:00:32:52.929
00:36:14.506 : en:00:36:14.506
00:40:37.310 : en:00:40:37.310
00:43:59.095 : en:00:43:59.095
00:47:57.416 : en:00:47:57.416
00:53:44.471 : en:00:53:44.471
00:56:29.928 : en:00:56:29.928
00:58:49.234 : en:00:58:49.234
01:00:35.465 : en:01:00:35.465
01:03:19.004 : en:01:03:19.004
01:05:17.831 : en:01:05:17.831
01:08:01.577 : en:01:08:01.577
01:10:34.522 : en:01:10:34.522
01:21:30.469 : en:01:21:30.469

-
Цитата:


*** Сохранены оригинальные чаптеры как на Blu-ray.
*** За приобретение дисковых материалов большое спасибо crazy_gringo.
*** Работа со звуком - Volshebnik.
-

_________________
Показать сообщения:    

Текущее время: Сегодня 09:48

Часовой пояс: GMT



Вы не можете начинать темы
Вы не можете отвечать на сообщения
Вы не можете редактировать свои сообщения
Вы не можете удалять свои сообщения
Вы не можете голосовать в опросах
Вы не можете прикреплять файлы к сообщениям
Вы не можете скачивать файлы