Важное объявление!
У Нас Все раздачи мультитрекерные, при нуле пиров в релизах, можете смело вставать на закачку!
 
Автор Сообщение

HUNTER

Стаж:
4 года 4 месяца
Сообщений:
56719

Репутация: 101

[+] [-]
Вне форума [Профиль] [ЛС]

Полёт домой / Flying Home
Страна: Германия, Бельгия
Жанр: мелодрама
Год выпуска: 2014
Продолжительность: 01:37:20
Перевод: Профессиональный (дублированный) Line
Cубтитры: Russian (Forced), English
Оригинальная аудиодорожка: английский
Режиссер: Доминик Дерюддер / Dominique Deruddere
В ролях: Джейми Дорнан, Энтони Хэд, Нуман Акар, Макс Пиркис, Али Сулиман, Шэрон Мофан, Митчелл Маллен, Ян Деклер, Гене Бервутс, Элине Ван дер Фелден
Описание: История о Колине, молодом честолюбивом корпоративном рейдере, и Изабель, фламандской студентке. Богатый арабский шейх, один из тех, кто может стать клиентом Колина, — большой поклонник голубей. Он уже пытался купить голубя-чемпиона из Фландрии, но хозяин птицы Йос упрямо отклоняет все его предложения. Пытаясь привлечь бизнес шейха на свою сторону, Колин предлагает заключить соглашение: если у него получится убедить Йоса продать голубя, то шейх подпишет договор с его компанией. Так Колин оказывается во Фландрии, в небольшой деревеньке, где выдает себя за учителя, занятого поисками могилы погибшего во время Первой мировой войны прадеда. Здесь Колин встречает Изабель…
Доп. информация: Присутствуют несколько фраз без перевода, на них вшиты русские субтитры.

Тип релиза: BDRip 720p
Контейнер: MKV
Видео: MPEG-4 AVC, 5539 Кбит/с, 1280x534, 23,976 fps
Аудио: Rus, AC3, 192 kb/s (2 ch), 48 kHz
Аудио 2: Eng, DTS, 1510 kb/s (6 ch), 48 kHz
Формат субтитров: softsub (SRT)

MediaInfo

Format : Matroska
Format version : Version 4 / Version 2
File size : 5.02 GiB
Duration : 1h 37mn
Overall bit rate : 7 387 Kbps
Encoded date : UTC 2015-02-05 19:12:38
Writing application : mkvmerge v7.1.0 ('Good Love') 64bit built on Jul 27 2014 13:06:55
Writing library : libebml v1.3.0 + libmatroska v1.4.1
_STATISTICS_WRITING_APP : mkvmerge v7.1.0 ('Good Love') 64bit built on Jul 27 2014 13:06:55
_STATISTICS_WRITING_DATE_UTC : 2015-02-05 19:12:38
_STATISTICS_TAGS : BPS DURATION NUMBER_OF_FRAMES NUMBER_OF_BYTES
DURATION : 01:00:04.433000000
NUMBER_OF_FRAMES : 68
NUMBER_OF_BYTES : 4096
Video
ID : 1
Format : AVC
Format/Info : Advanced Video Codec
Format profile : High@L4.1
Format settings, CABAC : Yes
Format settings, ReFrames : 12 frames
Codec ID : V_MPEG4/ISO/AVC
Duration : 1h 37mn
Bit rate : 5 539 Kbps
Width : 1 280 pixels
Height : 534 pixels
Display aspect ratio : 2.40:1
Frame rate mode : Constant
Frame rate : 23.976 fps
Color space : YUV
Chroma subsampling : 4:2:0
Bit depth : 8 bits
Scan type : Progressive
Bits/(Pixel*Frame) : 0.338
Stream size : 3.77 GiB (75%)
Writing library : x264 core 144 r2525kMod 40bb568
Encoding settings : cabac=1 / ref=12 / deblock=1:-3:-3 / analyse=0x3:0x113 / me=umh / subme=10 / psy=1 / fade_compensate=0.00 / psy_rd=1.00:0.00 / mixed_ref=1 / me_range=32 / chroma_me=1 / trellis=2 / 8x8dct=1 / cqm=0 / deadzone=21,11 / fast_pskip=0 / chroma_qp_offset=-2 / threads=12 / lookahead_threads=3 / sliced_threads=0 / nr=0 / decimate=0 / interlaced=0 / bluray_compat=0 / constrained_intra=0 / fgo=0 / bframes=10 / b_pyramid=2 / b_adapt=2 / b_bias=0 / direct=3 / weightb=1 / open_gop=0 / weightp=2 / keyint=250 / keyint_min=23 / scenecut=40 / intra_refresh=0 / rc_lookahead=40 / rc=crf / mbtree=0 / crf=15.5000 / qcomp=0.60 / qpmin=0 / qpmax=69 / qpstep=4 / vbv_maxrate=62500 / vbv_bufsize=78125 / crf_max=0.0 / nal_hrd=none / filler=0 / ip_ratio=1.30 / pb_ratio=1.20 / aq=3:0.90
Language : English
Default : Yes
Forced : No
_STATISTICS_WRITING_APP : mkvmerge v7.1.0 ('Good Love') 64bit built on Jul 27 2014 13:06:55
_STATISTICS_WRITING_DATE_UTC : 2015-02-05 19:12:38
_STATISTICS_TAGS : BPS DURATION NUMBER_OF_FRAMES NUMBER_OF_BYTES
DURATION : 01:37:20.001000000
NUMBER_OF_FRAMES : 140020
NUMBER_OF_BYTES : 4148549024
Audio #1
ID : 2
Format : AC-3
Format/Info : Audio Coding 3
Mode extension : CM (complete main)
Format settings, Endianness : Big
Codec ID : A_AC3
Duration : 1h 37mn
Bit rate mode : Constant
Bit rate : 192 Kbps
Channel(s) : 2 channels
Channel positions : Front: L R
Sampling rate : 48.0 KHz
Bit depth : 16 bits
Compression mode : Lossy
Stream size : 134 MiB (3%)
Title : line
Language : Russian
Default : Yes
Forced : No
Audio #2
ID : 3
Format : DTS
Format/Info : Digital Theater Systems
Mode : 16
Format settings, Endianness : Big
Codec ID : A_DTS
Duration : 1h 37mn
Bit rate mode : Constant
Bit rate : 1 509 Kbps
Channel(s) : 6 channels
Channel positions : Front: L C R, Side: L R, LFE
Sampling rate : 48.0 KHz
Bit depth : 24 bits
Compression mode : Lossy
Stream size : 1.03 GiB (20%)
Language : English
Default : No
Forced : No
Text #1
ID : 4
Format : UTF-8
Codec ID : S_TEXT/UTF8
Codec ID/Info : UTF-8 Plain Text
Title : Forced
Language : Russian
Default : Yes
Forced : No
Text #2
ID : 5
Format : UTF-8
Codec ID : S_TEXT/UTF8
Codec ID/Info : UTF-8 Plain Text
Language : English
Default : No
Forced : No
Text #3
ID : 6
Format : UTF-8
Codec ID : S_TEXT/UTF8
Codec ID/Info : UTF-8 Plain Text
Title : SDH
Language : English
Default : No
Forced : No
Menu
00:00:00.000 : en:Chapter 01
00:04:34.608 : en:Chapter 02
00:09:49.672 : en:Chapter 03
00:13:32.353 : en:Chapter 04
00:16:34.702 : en:Chapter 05
00:21:19.487 : en:Chapter 06
00:26:40.015 : en:Chapter 07
00:30:48.722 : en:Chapter 08
00:36:26.434 : en:Chapter 09
00:44:26.831 : en:Chapter 10
00:51:11.610 : en:Chapter 11
00:58:55.949 : en:Chapter 12
01:04:06.551 : en:Chapter 13
01:08:03.871 : en:Chapter 14
01:12:08.533 : en:Chapter 15
01:16:06.896 : en:Chapter 16
01:20:59.897 : en:Chapter 17
01:26:08.830 : en:Chapter 18
01:30:08.778 : en:Chapter 19
01:34:10.937 : en:Chapter 20

Скриншоты


_________________
Показать сообщения:    

Текущее время: Сегодня 00:36

Часовой пояс: GMT



Вы не можете начинать темы
Вы не можете отвечать на сообщения
Вы не можете редактировать свои сообщения
Вы не можете удалять свои сообщения
Вы не можете голосовать в опросах
Вы не можете прикреплять файлы к сообщениям
Вы не можете скачивать файлы