Важное объявление!
У Нас Все раздачи мультитрекерные, при нуле пиров в релизах, можете смело вставать на закачку!
 
Автор Сообщение

HUNTER

Стаж:
4 года 4 месяца
Сообщений:
56829

Репутация: 101

[+] [-]
Вне форума [Профиль] [ЛС]

Покушения. Джон Кеннеди
Год выпуска: 2013
Страна: Россия
Жанр: Документальный
Продолжительность: 00:26:09
Перевод: Не требуется
Режиссер: Юрий Соколов
Описание: В 1963 году Кеннеди совершил приблизительно 83 поездки по стране и миру, включая визиты в Западную Германию, Ирландию и Италию. Но предвыборная поездка по штату Техас стала для него роковой. Чтобы как можно больше жителей Далласа смогли увидеть его, несмотря на возражения охраны, Кеннеди распорядился не устанавливать на машине линкольн глухой съемный верх. Когда машина проезжала мимо здания книгохранилища, раздались выстрелы…
Сэмпл: http://multi-up.com/927532
качество: SATRip
формат: AVI
Видео: 704x384 (1.83:1), 25 fps, XviD MPEG-4, 1792 kbps avg, 0.27 bit/pixel
Аудио: MP3, 2 ch, 128 Кбит/с, 48 kHz
Релиз MediaClub

MediaInfo

Pokusheniya.Kennedy.avi
Format : AVI
Format/Info : Audio Video Interleave
File size : 360 MiB
Duration : 26mn 9s
Overall bit rate : 1 926 Kbps
Writing library : VirtualDub build 32507/release
Video #0
ID : 0
Format : MPEG-4 Visual
Format profile : Advanced Simple@L5
Format settings, BVOP : 2
Format settings, QPel : No
Format settings, GMC : No warppoints
Format settings, Matrix : Default (H.263)
Muxing mode : Packed bitstream
Codec ID : XVID
Codec ID/Hint : XviD
Duration : 26mn 9s
Bit rate : 1 788 Kbps
Width : 704 pixels
Height : 384 pixels
Display aspect ratio : 16:9
Frame rate : 25.000 fps
Color space : YUV
Chroma subsampling : 4:2:0
Bit depth : 8 bits
Scan type : Progressive
Compression mode : Lossy
Bits/(Pixel*Frame) : 0.265
Stream size : 335 MiB (93%)
Writing library : XviD 1.1.2 (UTC 2006-11-01)
Audio #1
ID : 1
Format : MPEG Audio
Format version : Version 1
Format profile : Layer 3
Mode : Joint stereo
Mode extension : MS Stereo
Codec ID : 55
Codec ID/Hint : MP3
Duration : 26mn 9s
Bit rate mode : Constant
Bit rate : 128 Kbps
Channel(s) : 2 channels
Sampling rate : 48.0 KHz
Compression mode : Lossy
Stream size : 24.0 MiB (7%)
Alignment : Split accross interleaves
Interleave, duration : 40 ms (1.00 video frame)
Interleave, preload duration : 500 ms
Writing library : LAME3.97

Скриншоты


_________________
Показать сообщения:    

Текущее время: Сегодня 16:57

Часовой пояс: GMT



Вы не можете начинать темы
Вы не можете отвечать на сообщения
Вы не можете редактировать свои сообщения
Вы не можете удалять свои сообщения
Вы не можете голосовать в опросах
Вы не можете прикреплять файлы к сообщениям
Вы не можете скачивать файлы