Важное объявление!
У Нас Все раздачи мультитрекерные, при нуле пиров в релизах, можете смело вставать на закачку!
 
Автор Сообщение

HUNTER

Стаж:
4 года 4 месяца
Сообщений:
56790

Репутация: 101

[+] [-]
Вне форума [Профиль] [ЛС]

Поклонник / The Boy Next Door
Страна: США
Производство: Smart Entertainment, Blumhouse Productions, Nuyorican Productions
Жанр: триллер
Год выпуска: 2015
Продолжительность: 01:30:33
Перевод: Профессиональный (дублированный) Blu-ray CEE
Оригинальная аудиодорожка: английская
Cубтитры: русские (форсированные, полные), английские (полные, SDH)
Режиссер: Роб Коэн / Rob Cohen
В ролях: Дженнифер Лопес, Райан Гузман, Кристин Ченоуэт, Джон Корбетт, Лекси Аткинс, Айан Нельсон, Бэйли Чейз, Трэвис Шульдт, Хилл Харпер, Рэкел Гарднер, Адам Хикс, Джек Уоллес
Описание: Это была внезапная слабость. Ночь без правил и обязательств. Но теперь пора вернуться к прежней жизни, семье, работе – все кончено. Только не для него - он готов на все, чтобы удержать ее. Страсть никогда еще не была так опасна.

Релиз: fanatus
Качество видео: BDRip 1080p
Исходник: THE_BOY_NEXT_DOOR_UPB2_HDCLUB
Контейнер: MKV
Видео: MPEG-4 AVC, 16.9 Mbps , 1920x800 (2.40:1), 23.976 fps, 0.459 bit/pixel
Аудио 1: русский (DTS, 6 ch, 48 kHz, 755 kbps) Dub (Blu-ray CEE)
Аудио 2: английский (DTS, 6 ch, 48 kHz, 1510 kbps) Original
Формат субтитров: softsub (SRT)
Главы: есть

MediaInfo

General
Unique ID : 215624346999566126848161562535223217545 (0xA237BD18FCFFB42CBB96473CECFDCD89)
Complete name : D:\The_Boy_Next_Door.2015.x264.BDRip.1080p.fanatus.mkv
Format : Matroska
Format version : Version 2
File size : 12.1 GiB
Duration : 1h 30mn
Overall bit rate : 19.2 Mbps
Movie name : The Boy Next Door (2015) - fanatus
Encoded date : UTC 2015-06-15 10:05:36
Writing application : mkvmerge v3.4.0 ('Rapunzel') сборка от May 15 2010 09:38:20
Writing library : libebml v0.8.0 + libmatroska v0.9.0
Attachment : Yes
Video
ID : 1
Format : AVC
Format/Info : Advanced Video Codec
Format profile : High@L4.1
Format settings, CABAC : Yes
Format settings, ReFrames : 5 frames
Codec ID : V_MPEG4/ISO/AVC
Duration : 1h 30mn
Bit rate : 16.9 Mbps
Width : 1 920 pixels
Height : 800 pixels
Display aspect ratio : 2.40:1
Frame rate : 23.976 fps
Color space : YUV
Chroma subsampling : 4:2:0
Bit depth : 8 bits
Scan type : Progressive
Bits/(Pixel*Frame) : 0.459
Stream size : 10.4 GiB (86%)
Title : BDRip(1080p)
Writing library : x264 core 142 r2431+42 c69a006 tMod [8-bit@all X86]
Encoding settings : cabac=1 / ref=5 / deblock=1:-3:-3 / analyse=0x3:0x113 / me=tesa / subme=11 / psy=1 / fade_compensate=0.00 / psy_rd=1.00:0.10 / mixed_ref=1 / me_range=64 / chroma_me=1 / trellis=2 / 8x8dct=1 / cqm=0 / deadzone=21,11 / fast_pskip=0 / chroma_qp_offset=-3 / threads=16 / lookahead_threads=2 / sliced_threads=0 / nr=0 / decimate=0 / interlaced=0 / bluray_compat=0 / constrained_intra=0 / fgo=0 / bframes=9 / b_pyramid=2 / b_adapt=2 / b_bias=0 / direct=3 / weightb=1 / open_gop=0 / weightp=2 / keyint=240 / keyint_min=23 / scenecut=40 / intra_refresh=0 / rc_lookahead=240 / rc=2pass / mbtree=0 / bitrate=16900 / ratetol=1.0 / qcomp=0.70 / qpmin=0:0:0 / qpmax=69:69:69 / qpstep=4 / cplxblur=20.0 / qblur=0.5 / vbv_maxrate=50000 / vbv_bufsize=62500 / nal_hrd=none / filler=0 / ip_ratio=1.40 / pb_ratio=1.30 / aq=4:0.80 / aq-sensitivity=10.00 / aq-factor=1.00:1.00:1.00 / aq2=0 / aq3=0
Language : English
Default : Yes
Forced : No
Audio #1
ID : 2
Format : DTS
Format/Info : Digital Theater Systems
Codec ID : A_DTS
Duration : 1h 30mn
Bit rate mode : Constant
Bit rate : 755 Kbps
Channel(s) : 6 channels
Channel positions : Front: L C R, Side: L R, LFE
Sampling rate : 48.0 KHz
Bit depth : 24 bits
Compression mode : Lossy
Stream size : 489 MiB (4%)
Title : Dub (BD CEE)
Language : Russian
Default : Yes
Forced : No
Audio #2
ID : 3
Format : DTS
Format/Info : Digital Theater Systems
Codec ID : A_DTS
Duration : 1h 30mn
Bit rate mode : Constant
Bit rate : 1 510 Kbps
Channel(s) : 6 channels
Channel positions : Front: L C R, Side: L R, LFE
Sampling rate : 48.0 KHz
Bit depth : 24 bits
Compression mode : Lossy
Stream size : 978 MiB (8%)
Title : Original
Language : English
Default : No
Forced : No
Text #1
ID : 4
Format : UTF-8
Codec ID : S_TEXT/UTF8
Codec ID/Info : UTF-8 Plain Text
Title : Forced
Language : Russian
Default : Yes
Forced : Yes
Text #2
ID : 5
Format : UTF-8
Codec ID : S_TEXT/UTF8
Codec ID/Info : UTF-8 Plain Text
Title : Full
Language : Russian
Default : No
Forced : No
Text #3
ID : 6
Format : UTF-8
Codec ID : S_TEXT/UTF8
Codec ID/Info : UTF-8 Plain Text
Title : Full
Language : English
Default : No
Forced : No
Text #4
ID : 7
Format : UTF-8
Codec ID : S_TEXT/UTF8
Codec ID/Info : UTF-8 Plain Text
Title : SDH
Language : English
Default : No
Forced : No
Menu
00:00:00.000 : en:Chapter 1
00:04:29.769 : en:Chapter 2
00:10:39.931 : en:Chapter 3
00:15:32.890 : en:Chapter 4
00:20:31.021 : en:Chapter 5
00:24:41.730 : en:Chapter 6
00:26:53.570 : en:Chapter 7
00:30:49.681 : en:Chapter 8
00:35:51.441 : en:Chapter 9
00:40:20.627 : en:Chapter 10
00:45:47.370 : en:Chapter 11
00:49:24.795 : en:Chapter 12
00:53:28.956 : en:Chapter 13
00:56:43.650 : en:Chapter 14
01:00:45.851 : en:Chapter 15
01:03:44.988 : en:Chapter 16
01:09:31.042 : en:Chapter 17
01:14:06.609 : en:Chapter 18
01:19:50.953 : en:Chapter 19
01:24:33.527 : en:Chapter 20

x264 [info]

x264 [info]: 1920x800p 1:1 @ 24000/1001 fps (cfr)
x264 [info]: started at Sun Jun 07 01:09:24 2015
x264 [info]: frame I:917 Avg QP:14.78 size:268649
x264 [info]: frame P:31257 Avg QP:16.56 size:132187
x264 [info]: frame B:98109 Avg QP:18.66 size: 72213
x264 [info]: consecutive B-frames: 3.7% 5.1% 13.4% 8.0% 14.4% 50.9% 2.9% 0.6% 0.3% 0.6%
x264 [info]: mb I I16..4: 20.2% 62.3% 17.5%
x264 [info]: mb P I16..4: 4.3% 39.2% 1.9% P16..4: 20.9% 23.1% 8.7% 0.0% 0.0% skip: 1.8%
x264 [info]: mb B I16..4: 0.6% 10.1% 0.2% B16..8: 33.2% 22.3% 4.7% direct:12.6% skip:16.2% L0:45.1% L1:40.9% BI:14.1%
x264 [info]: 8x8 transform intra:88.0% inter:52.4%
x264 [info]: direct mvs spatial:98.0% temporal:2.0%
x264 [info]: coded y,uvDC,uvAC intra: 95.4% 98.3% 96.1% inter: 51.5% 60.4% 34.4%
x264 [info]: i16 v,h,dc,p: 33% 3% 13% 52%
x264 [info]: i8 v,h,dc,ddl,ddr,vr,hd,vl,hu: 10% 8% 16% 10% 11% 11% 10% 12% 13%
x264 [info]: i4 v,h,dc,ddl,ddr,vr,hd,vl,hu: 9% 8% 8% 10% 15% 14% 13% 11% 13%
x264 [info]: i8c dc,h,v,p: 65% 9% 10% 15%
x264 [info]: Weighted P-Frames: Y:2.0% UV:1.4%
x264 [info]: ref P L0: 44.2% 7.4% 27.3% 9.9% 9.7% 1.4% 0.0%
x264 [info]: ref B L0: 73.7% 18.8% 5.9% 1.7%
x264 [info]: ref B L1: 91.7% 8.3%
x264 [info]: kb/s:16876.14
x264 [info]: encoded 130283 frames, 0.5733 fps, 16876.14 kb/s, 10932 MB
x264 [info]: ended at Tue Jun 09 16:16:36 2015
x264 [info]: encoding duration 63:07:12

Скриншот c названием фильма

Скриншоты


_________________
Показать сообщения:    

Текущее время: Сегодня 17:34

Часовой пояс: GMT



Вы не можете начинать темы
Вы не можете отвечать на сообщения
Вы не можете редактировать свои сообщения
Вы не можете удалять свои сообщения
Вы не можете голосовать в опросах
Вы не можете прикреплять файлы к сообщениям
Вы не можете скачивать файлы