Важное объявление!
У Нас Все раздачи мультитрекерные, при нуле пиров в релизах, можете смело вставать на закачку!
 
Автор Сообщение

HUNTER

Стаж:
4 года 4 месяца
Сообщений:
56829

Репутация: 101

[+] [-]
Вне форума [Профиль] [ЛС]

Поймет лишь одинокий / Only the Lonely
Страна: США
Жанр: комедия, мелодрама
Год выпуска: 1991
Продолжительность: 01:40:15
Перевод: Профессиональный (многоголосый закадровый) 1 канал
Перевод 2: Авторский (одноголосый закадровый) Михалев
Cубтитры: английские
Оригинальная аудиодорожка: английский
Режиссер: Крис Коламбус / Chris Columbus
В ролях: Джон Кэнди, Морин О`Хара, Элли Шиди, Кевин Данн, Майло О`Ши, Берт Ремсен, Энтони Куинн, Джеймс Белуши и др.
Описание: Чикагскому полицейскому Дэнни Мулдуну минуло уже 38 лет, а он продолжает оставаться неженатым. Старый холостяк живет со своей мамой Розой и трогательно о ней заботится. Но однажды в местном Ирландском баре он знакомится с хорошенькой Терезой Луной. Дэнни влюбляется в девушку с первого взгляда. И она отвечает взаимностью. Только капризная мать Дэнни омрачает счастливые дни, выражая явное неудовольствие: её совсем не устраивает перспектива стать свекровью…
Доп. информация: Запись с канала Первый HD. Из видеоряда удалены все рекламные вставки. Звуковые дорожки длиннее видео (за счет ускоренных титров) - продолжительность дана по ним.
Сэмпл: https://yadi.sk/i/RZYe0kBuhqRmm
Тип релиза: HDTV 1080i
Контейнер: MKV
Видео: AVC, 1920x1080 (16:9), 25.000 fps, 12.9 Mbps (0.249 bit/pixel)
Аудио: AC-3, 48.0 KHz, 2 ch, 192 Kbps, CBR (Russian) - mvo
Аудио 2: AC-3, 48.0 KHz, 2 ch, 192 Kbps, CBR (Russian) - avo
Аудио 3: AC-3, 48.0 KHz, 2 ch, 192 Kbps, CBR (English)
Формат субтитров: softsub (SRT)

MediaInfo

Общее
Уникальный идентификатор : 174359884744122225424407213239739102770 (0x832C7E08373653D5BEEBB9CA98BC3632)
Полное имя : K:\Поймет лишь одинокий.mkv
Формат : Matroska
Версия формата : Version 4 / Version 2
Размер файла : 9,63 Гбайт
Продолжительность : 1 ч. 40 м.
Общий поток : 13,8 Мбит/сек
Дата кодирования : UTC 2015-07-12 18:22:18
Программа кодирования : mkvmerge v8.1.0 ('Psychedelic Postcard') 64bit
Библиотека кодирования : libebml v1.3.1 + libmatroska v1.4.2
DURATION : 01:35:22.680000000
NUMBER_OF_FRAMES : 1432
NUMBER_OF_BYTES : 47973
_STATISTICS_WRITING_APP : mkvmerge v8.1.0 ('Psychedelic Postcard') 64bit
_STATISTICS_WRITING_DATE_UTC : 2015-07-12 18:22:18
_STATISTICS_TAGS : BPS DURATION NUMBER_OF_FRAMES NUMBER_OF_BYTES
Видео
Идентификатор : 1
Формат : AVC
Формат/Информация : Advanced Video Codec
Профиль формата : Main@L4
Параметр CABAC формата : Да
Параметр ReFrames формата : 3 кадра
Идентификатор кодека : V_MPEG4/ISO/AVC
Битрейт : 12,9 Мбит/сек
Ширина : 1920 пикселей
Высота : 1080 пикселей
Соотношение сторон : 16:9
Режим частоты кадров : Переменный
Частота кадров в оригинале : 25,000 кадров/сек
Стандарт вещания : Component
Цветовое пространство : YUV
Субдискретизация насыщенности : 4:2:0
Битовая глубина : 8 бит
Тип развёртки : Чересстрочная
Порядок развёртки : Верхнее поле первое
Заголовок : Поймет лишь одинокий / Only the Lonely (1991)
Язык : English
Default : Да
Forced : Нет
Цветовой диапазон : Limited
Основные цвета : BT.709
Характеристики трансфера : BT.709
Коэффициенты матрицы : BT.709
Аудио #1
Идентификатор : 2
Формат : AC-3
Формат/Информация : Audio Coding 3
Расширение режима : CM (complete main)
Параметр Endianness формата : Big
Идентификатор кодека : A_AC3
Продолжительность : 1 ч. 40 м.
Вид битрейта : Постоянный
Битрейт : 192 Кбит/сек
Каналы : 2 канала
Расположение каналов : Front: L R
Частота : 48,0 КГц
Метод сжатия : С потерями
Задержка видео : -9 мс.
Размер потока : 138 Мбайт (1%)
Заголовок : Профессиональный (многоголосый, закадровый) 1 канал
Язык : Russian
Default : Да
Forced : Нет
Аудио #2
Идентификатор : 3
Формат : AC-3
Формат/Информация : Audio Coding 3
Расширение режима : CM (complete main)
Параметр Endianness формата : Big
Идентификатор кодека : A_AC3
Продолжительность : 1 ч. 40 м.
Вид битрейта : Постоянный
Битрейт : 192 Кбит/сек
Каналы : 2 канала
Расположение каналов : Front: L R
Частота : 48,0 КГц
Метод сжатия : С потерями
Задержка видео : -9 мс.
Размер потока : 138 Мбайт (1%)
Заголовок : Авторский (одноголосый) А.Михалев
Язык : Russian
Default : Нет
Forced : Нет
Аудио #3
Идентификатор : 4
Формат : AC-3
Формат/Информация : Audio Coding 3
Расширение режима : CM (complete main)
Параметр Endianness формата : Big
Идентификатор кодека : A_AC3
Продолжительность : 1 ч. 40 м.
Вид битрейта : Постоянный
Битрейт : 192 Кбит/сек
Каналы : 2 канала
Расположение каналов : Front: L R
Частота : 48,0 КГц
Метод сжатия : С потерями
Задержка видео : -9 мс.
Размер потока : 138 Мбайт (1%)
Язык : English
Default : Нет
Forced : Нет
Текст
Идентификатор : 5
Формат : UTF-8
Идентификатор кодека : S_TEXT/UTF8
Идентификатор кодека/Информация : UTF-8 Plain Text
Язык : English
Default : Да
Forced : Нет

_________________
Показать сообщения:    

Текущее время: Сегодня 16:11

Часовой пояс: GMT



Вы не можете начинать темы
Вы не можете отвечать на сообщения
Вы не можете редактировать свои сообщения
Вы не можете удалять свои сообщения
Вы не можете голосовать в опросах
Вы не можете прикреплять файлы к сообщениям
Вы не можете скачивать файлы