Важное объявление!
У Нас Все раздачи мультитрекерные, при нуле пиров в релизах, можете смело вставать на закачку!
 
Автор Сообщение

HUNTER

Стаж:
4 года 4 месяца
Сообщений:
56839

Репутация: 101

[+] [-]
Вне форума [Профиль] [ЛС]

Поймай толстуху, если сможешь / Identity Thief-
Страна: США
Жанр: комедия, криминал
Год выпуска: 2013
Продолжительность: 01:51:27
Перевод:

  • Профессиональный (дублированный)
    Cубтитры: русские, английские
    Оригинальная аудиодорожка: английский-Режиссер: Сет Гордон / Seth Gordon
    В ролях: Джейсон Бейтман, Мелисса МакКарти, Аманда Пит, Роберт Патрик, Генезис Родригез, Ти-Ай, Джон Фавро, Моррис Честнат, Джон Чо, Эрик Стоунстрит.
    Описание: Молодому финансисту из Колорадо Сэнди Паторсону пришлось столкнуться с настоящим мошенничеством. Как-то он попытался снять наличные со своего банковского счета, но у него ничего не вышло. Расплатиться кредитной картой он тоже не может и тогда Сэнди обращается в банк. Ему сообщают, что его личным счетом уже кто-то пользуется, совершая постоянные покупки от его имени. Молодой человек отправляется в полицию, где ему показывают фотографию профессиональной мошенницы Дианны. Парень приходит в бешенство и решает самостоятельно поймать женщину, которая тратит его деньги. Он отправляется во Флориду, но поймать мошенницу оказывается не так просто, как ему казалось...-Тип релиза: BDRip 720p
    Контейнер: MKV | Sample
    Видео: 1280x544 (2.35:1), 23.976 fps, x264@L4.1 ~5160 kbps avg
    Аудио 1: Russian 48 kHz, DTS, 3/2 (L,C,R,l,r) + LFE ch, 768.00 kbps avg | BD CEE
    Аудио 2: English 48 kHz, DTS, 3/2 (L,C,R,l,r) + LFE ch, 1509.00 kbps avg | Original

    СкриншотыМедиаинфо
    Общее
    Формат : Matroska
    Версия формата : Version 4 / Version 2
    Размер файла : 5,79 Гбайт
    Продолжительность : 1 ч. 51 м.
    Общий поток : 7432 Кбит/сек
    Название фильма : Identity Thief 2013 Theatrical Cut
    Дата кодирования : UTC 2014-06-05 15:37:44
    Программа кодирования : mkvmerge v6.1.0 ('Old Devil') built on Mar 4 2013 09:10:42
    Библиотека кодирования : libebml v1.3.0 + libmatroska v1.4.0
    Видео
    Идентификатор : 1
    Формат : AVC
    Формат/Информация : Advanced Video Codec
    Профиль формата : High@L4.1
    Параметр CABAC формата : Да
    Параметр ReFrames формата : 10 кадров
    Идентификатор кодека : V_MPEG4/ISO/AVC
    Продолжительность : 1 ч. 51 м.
    Битрейт : 5160 Кбит/сек
    Ширина : 1280 пикселей
    Высота : 544 пикселя
    Соотношение сторон : 2,35:1
    Режим частоты кадров : Постоянный
    Частота кадров : 23,976 кадра/сек
    Цветовое пространство : YUV
    Субдискретизация насыщенности : 4:2:0
    Битовая глубина : 8 бит
    Тип развёртки : Прогрессивная
    Бит/(Пиксели*Кадры) : 0.309
    Размер потока : 3,90 Гбайт (67%)
    Заголовок : BDRip 720p
    Библиотека кодирования : x264 core 133 r2334 a3ac64b
    Настройки программы : cabac=1 / ref=10 / deblock=1:0:0 / analyse=0x3:0x113 / me=umh / subme=10 / psy=1 / psy_rd=1.00:0.10 / mixed_ref=1 / me_range=32 / chroma_me=1 / trellis=2 / 8x8dct=1 / cqm=0 / deadzone=21,11 / fast_pskip=0 / chroma_qp_offset=-3 / threads=2 / lookahead_threads=1 / sliced_threads=0 / nr=0 / decimate=0 / interlaced=0 / bluray_compat=0 / constrained_intra=0 / bframes=10 / b_pyramid=2 / b_adapt=2 / b_bias=0 / direct=3 / weightb=1 / open_gop=0 / weightp=2 / keyint=240 / keyint_min=23 / scenecut=40 / intra_refresh=0 / rc_lookahead=40 / rc=2pass / mbtree=0 / bitrate=5160 / ratetol=1.0 / qcomp=0.60 / qpmin=0 / qpmax=69 / qpstep=4 / cplxblur=20.0 / qblur=0.5 / vbv_maxrate=50000 / vbv_bufsize=62500 / nal_hrd=none / ip_ratio=1.40 / pb_ratio=1.30 / aq=1:0.80
    Язык : English
    Default : Да
    Forced : Нет
    Аудио #1
    Идентификатор : 2
    Формат : DTS
    Формат/Информация : Digital Theater Systems
    Режим : 16
    Параметр Endianness формата : Big
    Идентификатор кодека : A_DTS
    Продолжительность : 1 ч. 51 м.
    Вид битрейта : Постоянный
    Битрейт : 768 Кбит/сек
    Каналы : 6 каналов
    Расположение каналов : Front: L C R, Side: L R, LFE
    Частота : 48,0 КГц
    Битовая глубина : 24 бит
    Метод сжатия : С потерями
    Размер потока : 612 Мбайт (10%)
    Заголовок : BD CEE
    Язык : Russian
    Default : Да
    Forced : Нет
    Аудио #2
    Идентификатор : 3
    Формат : DTS
    Формат/Информация : Digital Theater Systems
    Режим : 16
    Параметр Endianness формата : Big
    Идентификатор кодека : A_DTS
    Продолжительность : 1 ч. 51 м.
    Вид битрейта : Постоянный
    Битрейт : 1509 Кбит/сек
    Каналы : 6 каналов
    Расположение каналов : Front: L C R, Side: L R, LFE
    Частота : 48,0 КГц
    Битовая глубина : 24 бит
    Метод сжатия : С потерями
    Размер потока : 1,17 Гбайт (20%)
    Заголовок : Original
    Язык : English
    Default : Нет
    Forced : Нет
    Текст #1
    Идентификатор : 4
    Формат : UTF-8
    Идентификатор кодека : S_TEXT/UTF8
    Идентификатор кодека/Информация : UTF-8 Plain Text
    Заголовок : Forced
    Язык : Russian
    Default : Да
    Forced : Нет
    Текст #2
    Идентификатор : 5
    Формат : UTF-8
    Идентификатор кодека : S_TEXT/UTF8
    Идентификатор кодека/Информация : UTF-8 Plain Text
    Заголовок : Full
    Язык : Russian
    Default : Нет
    Forced : Нет
    Текст #3
    Идентификатор : 6
    Формат : UTF-8
    Идентификатор кодека : S_TEXT/UTF8
    Идентификатор кодека/Информация : UTF-8 Plain Text
    Заголовок : Full SDH
    Язык : English
    Default : Нет
    Forced : Нет
    Меню
    00:00:00.000 : :Chapter 01
    00:06:30.972 : :Chapter 02
    00:11:12.671 : :Chapter 03
    00:15:40.647 : :Chapter 04
    00:24:00.188 : :Chapter 05
    00:27:59.469 : :Chapter 06
    00:34:22.685 : :Chapter 07
    00:40:19.917 : :Chapter 08
    00:44:22.534 : :Chapter 09
    00:49:59.411 : :Chapter 10
    00:54:34.813 : :Chapter 11
    01:01:07.455 : :Chapter 12
    01:05:34.013 : :Chapter 13
    01:09:20.113 : :Chapter 14
    01:14:46.773 : :Chapter 15
    01:21:15.412 : :Chapter 16
    01:28:15.997 : :Chapter 17
    01:34:34.585 : :Chapter 18
    01:40:49.835 : :Chapter 19
    01:47:19.015 : :Chapter 20

  • _________________
    Показать сообщения:    

    Текущее время: Сегодня 08:08

    Часовой пояс: GMT



    Вы не можете начинать темы
    Вы не можете отвечать на сообщения
    Вы не можете редактировать свои сообщения
    Вы не можете удалять свои сообщения
    Вы не можете голосовать в опросах
    Вы не можете прикреплять файлы к сообщениям
    Вы не можете скачивать файлы