Важное объявление!
У Нас Все раздачи мультитрекерные, при нуле пиров в релизах, можете смело вставать на закачку!
 
Автор Сообщение

HUNTER

Стаж:
4 года 4 месяца
Сообщений:
56755

Репутация: 101

[+] [-]
Вне форума [Профиль] [ЛС]

Поиск жизни за пределами Земли
PBS NOVA: Finding Life Beyond Earth
7.80-
Год выпуска: 2011
Страна: США | PBS Home Video
Жанр: Документальный
Продолжительность: 00:52:39 | 00:54:05
Перевод: Многоголосый (закадровый)
Русские субтитры: нет
Субтитры: Английские-Режиссер: Оливер Твинч / Oliver Twinch-Описание: Предпримите захватывающее путешествие в отдаленные сферы нашей Солнечной системы, чтобы обнаружить, где могут быть спрятаны секретные формы жизни. Комбинируя последние изображения телескопов с великолепной мультипликацией, эта программа погружает зрителей в достопримечательности и звуки других миров, в то время как ведущие астробиологи объясняют, как эти изменяются места, что они думают о потенциале жизни в нашей Солнечной системе.- -Качество: BDRip-AVC
Формат: MKV
Видео: MPEG-4 AVC, 1024x576 (16:9), 23.976 fps, ~1800 kbps avg, 0.12 bit/pixel
Аудио: 48.0 kHz, AC3 Dolby Digital, 2/0 (L,R) ch, ~192.00 kbps avg

MediaInfo

ОбщееУникальный идентификатор : 185638536469432616716554854101689544764 (0x8BA8AE7EC558D6E183CA17FC360FB03C)Полное имя : A:\Фильмы\PBS.NOVA.Finding.Life.Beyond.Earth.2011.BDRip.(AVC)\Finding.Life.Beyond.Earth.Are.We.Alone.mkvФормат : MatroskaВерсия формата : Version 2Размер файла : 751 МбайтПродолжительность : 52 м.Общий поток : 1993 Кбит/секДата кодирования : UTC 2013-03-31 04:15:06Программа кодирования : mkvmerge v5.8.0 ('No Sleep / Pillow') built on Sep 2 2012 15:37:04Библиотека кодирования : libebml v1.2.3 + libmatroska v1.3.0
ВидеоИдентификатор : 1Формат : AVCФормат/Информация : Advanced Video CodecПрофиль формата : High@L4.1Параметр CABAC формата : ДаПараметр ReFrames формата : 4 кадраИдентификатор кодека : V_MPEG4/ISO/AVCПродолжительность : 52 м.Битрейт : 1800 Кбит/секШирина : 1024 пикселяВысота : 576 пикселейСоотношение сторон : 16:9Режим частоты кадров : ПостоянныйЧастота кадров : 23,976 кадра/секЦветовое пространство : YUVСубдискретизация насыщенности : 4:2:0Битовая глубина : 8 битТип развёртки : ПрогрессивнаяБит/(Пиксели*Кадры) : 0.127Размер потока : 663 Мбайт (88%)Библиотека кодирования : x264 core 125 r2208 d9d2288Настройки программы : cabac=1 / ref=3 / deblock=1:-1:-1 / analyse=0x3:0x111 / me=umh / subme=9 / psy=1 / psy_rd=1.00:0.15 / mixed_ref=1 / me_range=32 / chroma_me=1 / trellis=2 / 8x8dct=1 / cqm=0 / deadzone=21,11 / fast_pskip=0 / chroma_qp_offset=-3 / threads=3 / lookahead_threads=1 / sliced_threads=0 / nr=0 / decimate=1 / interlaced=0 / bluray_compat=0 / constrained_intra=0 / bframes=3 / b_pyramid=2 / b_adapt=0 / b_bias=0 / direct=1 / weightb=1 / open_gop=0 / weightp=2 / keyint=250 / keyint_min=23 / scenecut=40 / intra_refresh=0 / rc_lookahead=50 / rc=2pass / mbtree=1 / bitrate=1800 / ratetol=1.0 / qcomp=0.60 / qpmin=0 / qpmax=69 / qpstep=4 / cplxblur=20.0 / qblur=0.5 / ip_ratio=1.40 / aq=1:1.00Default : ДаForced : Нет
АудиоИдентификатор : 2Формат : AC-3Формат/Информация : Audio Coding 3Профиль формата : Dolby DigitalРасширение режима : CM (complete main)Параметр Endianness формата : BigИдентификатор кодека : A_AC3Продолжительность : 52 м.Вид битрейта : ПостоянныйБитрейт : 192 Кбит/секКаналы : 2 каналаРасположение каналов : Front: L RЧастота : 48,0 КГцБитовая глубина : 16 битМетод сжатия : С потерямиРазмер потока : 72,3 Мбайт (10%)Язык : RussianDefault : ДаForced : Нет
ОбщееУникальный идентификатор : 235004780255196835841531989719575121661 (0xB0CC463AEF1F61CEB025FA983AD34EFD)Полное имя : A:\Фильмы\PBS.NOVA.Finding.Life.Beyond.Earth.2011.BDRip.(AVC)\Finding.Life.Beyond.Earth.Moons.And.Beyond.mkvФормат : MatroskaВерсия формата : Version 2Размер файла : 771 МбайтПродолжительность : 54 м.Общий поток : 1994 Кбит/секДата кодирования : UTC 2013-03-31 13:01:03Программа кодирования : mkvmerge v5.8.0 ('No Sleep / Pillow') built on Sep 2 2012 15:37:04Библиотека кодирования : libebml v1.2.3 + libmatroska v1.3.0
ВидеоИдентификатор : 1Формат : AVCФормат/Информация : Advanced Video CodecПрофиль формата : High@L4.1Параметр CABAC формата : ДаПараметр ReFrames формата : 4 кадраИдентификатор кодека : V_MPEG4/ISO/AVCПродолжительность : 54 м.Битрейт : 1800 Кбит/секШирина : 1024 пикселяВысота : 576 пикселейСоотношение сторон : 16:9Режим частоты кадров : ПостоянныйЧастота кадров : 23,976 кадра/секЦветовое пространство : YUVСубдискретизация насыщенности : 4:2:0Битовая глубина : 8 битТип развёртки : ПрогрессивнаяБит/(Пиксели*Кадры) : 0.127Размер потока : 682 Мбайт (88%)Библиотека кодирования : x264 core 125 r2208 d9d2288Настройки программы : cabac=1 / ref=3 / deblock=1:-1:-1 / analyse=0x3:0x111 / me=umh / subme=9 / psy=1 / psy_rd=1.00:0.15 / mixed_ref=1 / me_range=32 / chroma_me=1 / trellis=2 / 8x8dct=1 / cqm=0 / deadzone=21,11 / fast_pskip=0 / chroma_qp_offset=-3 / threads=3 / lookahead_threads=1 / sliced_threads=0 / nr=0 / decimate=1 / interlaced=0 / bluray_compat=0 / constrained_intra=0 / bframes=3 / b_pyramid=2 / b_adapt=0 / b_bias=0 / direct=1 / weightb=1 / open_gop=0 / weightp=2 / keyint=250 / keyint_min=23 / scenecut=40 / intra_refresh=0 / rc_lookahead=50 / rc=2pass / mbtree=1 / bitrate=1800 / ratetol=1.0 / qcomp=0.60 / qpmin=0 / qpmax=69 / qpstep=4 / cplxblur=20.0 / qblur=0.5 / ip_ratio=1.40 / aq=1:1.00Default : ДаForced : Нет
АудиоИдентификатор : 2Формат : AC-3Формат/Информация : Audio Coding 3Профиль формата : Dolby DigitalРасширение режима : CM (complete main)Параметр Endianness формата : BigИдентификатор кодека : A_AC3Продолжительность : 54 м.Вид битрейта : ПостоянныйБитрейт : 192 Кбит/секКаналы : 2 каналаРасположение каналов : Front: L RЧастота : 48,0 КГцБитовая глубина : 16 битМетод сжатия : С потерямиРазмер потока : 74,3 Мбайт (10%)Default : ДаForced : Нет

Скриншоты



_________________
Показать сообщения:    

Текущее время: Сегодня 09:59

Часовой пояс: GMT



Вы не можете начинать темы
Вы не можете отвечать на сообщения
Вы не можете редактировать свои сообщения
Вы не можете удалять свои сообщения
Вы не можете голосовать в опросах
Вы не можете прикреплять файлы к сообщениям
Вы не можете скачивать файлы