Важное объявление!
У Нас Все раздачи мультитрекерные, при нуле пиров в релизах, можете смело вставать на закачку!
 
Автор Сообщение

HUNTER

Стаж:
4 года 4 месяца
Сообщений:
56755

Репутация: 101

[+] [-]
Вне форума [Профиль] [ЛС]

Поединок в Диггстауне / Diggstown
Страна: США
Жанр: драма, криминал, спорт
Год выпуска: 1992
Продолжительность: 01:37:46
Перевод 1: Профессиональный (многоголосый закадровый)
Перевод 2: Профессиональный (двухголосый закадровый)
Перевод 3: Авторский (одноголосый закадровый)
Cубтитры: русские, английские
Оригинальная аудиодорожка: английский-Режиссер: Майкл Ритчи / Michael Ritchie-В ролях: Джеймс Вудс, Луис Госсет мл., Брюс Дерн, Оливер Платт, Хэзер Грэм, Рэндал «Текс» Кобб, Томас Уилсон Браун, Дуан Дэвис, Дэвид Фреско, Уилли Грин-Описание: Даже попав в тюремные застенки, отпетый мошенник не теряет времени даром, зарабатывая капитал на организации побегов. Оказавшись на свободе, он вместе со своим напарником организует тотализатор на боксерских поединках...-Релиз от: by delia-Рип от SbR-Качество видео: BDRip | Sample
Формат видео: MKV
Видео: 1280x692 at 23.976 fps, x264@L4.1, ~10131 kbps avg
Аудио 1: Russian: 48 kHz, AC3, 2/0 (L,R) ch, ~192 kbps avg |Многоголосый закадровый|
Аудио 2: Russian: 48 kHz, AC3, 2/0 (L,R) ch, ~192 kbps avg |Двухголосый закадровый, НТВ+|
Аудио 3: Russian: 48 kHz, AC3, 2/0 (L,R) ch, ~192 kbps avg |В.Горчаков|
Аудио 4: English: 48 kHz/16-bit, FLAC 2.0, ~801 kbps avg-

Дополнительно

Цитата:
Цитата:

  • Сохранены оригинальные чаптеры как на Blu-ray.
  • За дорожку В.Горчакова спасибо _int_.

MediaInfo

Код:
Format                      : Matroska
Format version              : Version 4 / Version 2
File size                   : 7.86 GiB
Duration                    : 1h 37mn
Overall bit rate mode       : Variable
Overall bit rate            : 11.5 Mbps
Encoded date                : UTC 2016-03-05 19:00:00
Writing application         : mkvmerge v8.3.0 ('Over the Horizon') 64bit
Writing library             : libebml v1.3.1 + libmatroska v1.4.2
Cover                       : Yes
Attachments                 : cover.jpg
Video
ID                          : 1
Format                      : AVC
Format/Info                 : Advanced Video Codec
Format profile              : High@L4.1
Format settings, CABAC      : Yes
Format settings, ReFrames   : 9 frames
Codec ID                    : V_MPEG4/ISO/AVC
Duration                    : 1h 37mn
Bit rate                    : 10.1 Mbps
Width                       : 1 280 pixels
Height                      : 692 pixels
Display aspect ratio        : 1.85:1
Frame rate mode             : Constant
Frame rate                  : 23.976 (24000/1001) fps
Color space                 : YUV
Chroma subsampling          : 4:2:0
Bit depth                   : 8 bits
Scan type                   : Progressive
Bits/(Pixel*Frame)          : 0.477
Stream size                 : 6.92 GiB (88%)
Writing library             : x264 core 148 r2665+53 6629127 t_mod_Custom [8-bit@all X86_64]
Encoding settings           : cabac=1 / ref=9 / deblock=1:-3:-3 / analyse=0x3:0x133 / me=umh / subme=11 / psy=1 / fade_compensate=0.00 / psy_rd=1.00:0.05 / mixed_ref=1 / me_range=24 / chroma_me=1 / trellis=2 / 8x8dct=1 / cqm=0 / deadzone=21,11 / fast_pskip=0 / chroma_qp_offset=-3 / threads=6 / lookahead_threads=1 / sliced_threads=0 / nr=0 / decimate=1 / interlaced=0 / bluray_compat=0 / constrained_intra=0 / fgo=0 / bframes=11 / b_pyramid=2 / b_adapt=2 / b_bias=0 / direct=3 / weightb=1 / open_gop=0 / weightp=2 / keyint=250 / keyint_min=23 / scenecut=40 / intra_refresh=0 / rc_lookahead=60 / rc=crf / mbtree=0 / crf=18.0000 / qcomp=0.60 / qpmin=0:0:0 / qpmax=69:69:69 / qpstep=4 / vbv_maxrate=62500 / vbv_bufsize=78125 / crf_max=0.0 / nal_hrd=none / filler=0 / ip_ratio=1.40 / pb_ratio=1.30 / aq=1:0.65 / aq-sensitivity=10.00 / aq-factor=1.00:1.00:1.00 / aq2=0 / aq3=0
Language                    : English
Default                     : Yes
Forced                      : No
Color range                 : Limited
Color primaries             : BT.709
Transfer characteristics    : BT.709
Matrix coefficients         : BT.709
Audio #1
ID                          : 2
Format                      : AC-3
Format/Info                 : Audio Coding 3
Mode extension              : CM (complete main)
Format settings, Endianness : Big
Codec ID                    : A_AC3
Duration                    : 1h 37mn
Bit rate mode               : Constant
Bit rate                    : 192 Kbps
Channel(s)                  : 2 channels
Channel positions           : Front: L R
Sampling rate               : 48.0 KHz
Frame rate                  : 31.250 fps (1536 spf)
Compression mode            : Lossy
Stream size                 : 134 MiB (2%)
Title                       : Многоголосый закадровый
Language                    : Russian
Default                     : Yes
Forced                      : No
Audio #2
ID                          : 3
Format                      : AC-3
Format/Info                 : Audio Coding 3
Mode extension              : CM (complete main)
Format settings, Endianness : Big
Codec ID                    : A_AC3
Duration                    : 1h 37mn
Bit rate mode               : Constant
Bit rate                    : 192 Kbps
Channel(s)                  : 2 channels
Channel positions           : Front: L R
Sampling rate               : 48.0 KHz
Frame rate                  : 31.250 fps (1536 spf)
Compression mode            : Lossy
Stream size                 : 134 MiB (2%)
Title                       : Двухголосый закадровый, НТВ+
Language                    : Russian
Default                     : No
Forced                      : No
Audio #3
ID                          : 4
Format                      : AC-3
Format/Info                 : Audio Coding 3
Mode extension              : CM (complete main)
Format settings, Endianness : Big
Codec ID                    : A_AC3
Duration                    : 1h 37mn
Bit rate mode               : Constant
Bit rate                    : 192 Kbps
Channel(s)                  : 2 channels
Channel positions           : Front: L R
Sampling rate               : 48.0 KHz
Frame rate                  : 31.250 fps (1536 spf)
Compression mode            : Lossy
Stream size                 : 134 MiB (2%)
Title                       : Одноголосый закадровый, В.Горчаков
Language                    : Russian
Default                     : No
Forced                      : No
Audio #4
ID                          : 5
Format                      : FLAC
Format/Info                 : Free Lossless Audio Codec
Codec ID                    : A_FLAC
Duration                    : 1h 37mn
Bit rate mode               : Variable
Bit rate                    : 801 Kbps
Channel(s)                  : 2 channels
Channel positions           : Front: L R
Sampling rate               : 48.0 KHz
Frame rate                  : 11.719 fps (4096 spf)
Bit depth                   : 16 bits
Stream size                 : 560 MiB (7%)
Writing library             : libFLAC 1.2.1 (UTC 2007-09-17)
Language                    : English
Default                     : No
Forced                      : No
Text #1
ID                          : 6
Format                      : UTF-8
Codec ID                    : S_TEXT/UTF8
Codec ID/Info               : UTF-8 Plain Text
Duration                    : 1h 34mn
Bit rate                    : 118 bps
Count of elements           : 1222
Stream size                 : 81.5 KiB (0%)
Language                    : Russian
Default                     : No
Forced                      : No
Text #2
ID                          : 7
Format                      : UTF-8
Codec ID                    : S_TEXT/UTF8
Codec ID/Info               : UTF-8 Plain Text
Duration                    : 1h 34mn
Bit rate                    : 69 bps
Count of elements           : 1445
Stream size                 : 47.6 KiB (0%)
Language                    : English
Default                     : No
Forced                      : No
Menu
00:00:00.000                : en:00:00:00.000
00:08:17.872                : en:00:08:17.872
00:23:57.809                : en:00:23:57.809
00:39:23.235                : en:00:39:23.235
00:52:33.942                : en:00:52:33.942
01:05:36.139                : en:01:05:36.139
01:16:19.614                : en:01:16:19.614
01:28:31.430                : en:01:28:31.430

Скриншоты


_________________
Показать сообщения:    

Текущее время: Сегодня 17:16

Часовой пояс: GMT



Вы не можете начинать темы
Вы не можете отвечать на сообщения
Вы не можете редактировать свои сообщения
Вы не можете удалять свои сообщения
Вы не можете голосовать в опросах
Вы не можете прикреплять файлы к сообщениям
Вы не можете скачивать файлы