Важное объявление!
У Нас Все раздачи мультитрекерные, при нуле пиров в релизах, можете смело вставать на закачку!
 
Автор Сообщение

neon10_10

Стаж:
5 лет 10 месяцев
Сообщений:
63

Репутация: 49

[+] [-]
Вне форума [Профиль] [ЛС]

Подстава / SetUp
Страна: США
Жанр: боевик, драма, криминал
Год выпуска: 2011
Продолжительность: 01:24:54-Перевод: Профессиональный (дублированный)
Cубтитры: Russian, English
Оригинальная аудиодорожка: English-Режиссер: Майк Гюнтер / Mike Gunther
В ролях: Фифти Сент, Брюс Уиллис, Райан Филипп, Дженна Деван, Джеймс Римар, Рэнди Кутюр, Уилл Юн Ли, Шон Тоуб, Джей Карнс, Сьюзи Абромейт-Описание: Лучшие друзья Сони, Винсент и Дейв вместе выросли на бандитских улицах и зарабатывают на жизнь разбоем. Устав от такой жизни, они решают покончить с преступлениями, когда завершат последнее криминальное дело. Однако один их них решил прекратить преступный путь двоих других в полном смысле слова. После удачного, но кровавого похищения алмазов Винсент стреляет в своих товарищей и бросает их умирать. Дейв погибает на месте, а Сони чудом остается в живых. Теперь у него одна цель — отомстить предателю.-Качество: BDRemux 1080p
Контейнер: MKV
Видео: H.264, 1920x1080, 23,976 fps, 21.7 Mbps
Аудио #1: Russian: AC3 5.1, 48 kHz, 448 kbps avg |Дубляж|
Аудио #2: Russian: AC3 5.1, 48 kHz, 448 kbps avg |Одноголосый закадровый, Zamez|
Аудио #3: English: DTS-HD MA 5.1, 48 kHz, 1561 kbps avg (DTS Core: 5.1 / 48 kHz / 1509 kbps)
Формат субтитров: softsub (SRT)

MediaInfo

General
Полное имя : E:\SetUp.2011.BDRemux.mkv
Формат : Matroska
Размер файла : 14.6 GiB
Продолжительность : 1h 24mn
Общий поток : 24.6 Mbps
Фильм : Подстава
Дата кодирования : UTC 2011-10-22 02:12:41
Программа кодирования : mkvmerge v2.9.7 ('Tenderness') built on Jul 1 2009 18:43:35
Библиотека кодирования : libebml v0.7.7 + libmatroska v0.8.1
Video
Идентификатор : 1
Формат : AVC
Формат/Информация : Advanced Video Codec
Профайл формата : High@L4.1
Параметры CABAC формата : Yes
Параметры ReFrames формата : 4 frames
Режим смешивания : Container profile=Unknown@0.0
Идентификатор кодека : V_MPEG4/ISO/AVC
Продолжительность : 1h 24mn
Ширина : 1 920 pixels
Высота : 1 080 pixels
Соотношение кадра : 16:9
Частота кадров : 23.976 fps
Разрешение : 8 bits
Колориметрия : 4:2:0
Тип развёртки : Progressive
Заголовок : Подстава
Язык : English
Audio #1
Идентификатор : 2
Формат : AC-3
Формат/Информация : Audio Coding 3
Идентификатор кодека : A_AC3
Продолжительность : 1h 24mn
Вид битрейта : Constant
Битрейт : 448 Kbps
Канал(ы) : 6 channels
Расположение каналов : Front: L C R, Side: L R, LFE
Частота : 48.0 KHz
Размер потока : 272 MiB (2%)
Заголовок : AC3 - Дубляж
Язык : Russian
Audio #2
Идентификатор : 3
Формат : AC-3
Формат/Информация : Audio Coding 3
Идентификатор кодека : A_AC3
Продолжительность : 1h 24mn
Вид битрейта : Constant
Битрейт : 448 Kbps
Канал(ы) : 6 channels
Расположение каналов : Front: L C R, Side: L R, LFE
Частота : 48.0 KHz
Размер потока : 272 MiB (2%)
Заголовок : AC3 - AVO (Zamez)
Язык : Russian
Audio #3
Идентификатор : 4
Формат : DTS
Формат/Информация : Digital Theater Systems
Профайл формата : MA
Идентификатор кодека : A_DTS
Продолжительность : 1h 24mn
Вид битрейта : Variable
Канал(ы) : 6 channels
Расположение каналов : Front: L C R, Side: L R, LFE
Частота : 48.0 KHz
Разрешение : 24 bits
Заголовок : DTS-HD
Язык : English
Text #1
Идентификатор : 5
Формат : UTF-8
Идентификатор кодека : S_TEXT/UTF8
Идентификатор кодека/Информация : UTF-8 Plain Text
Язык : Russian
Text #2
Идентификатор : 6
Формат : UTF-8
Идентификатор кодека : S_TEXT/UTF8
Идентификатор кодека/Информация : UTF-8 Plain Text
Язык : English
Menu
00:00:00.000 : en:CHAPTER01
00:05:57.607 : en:CHAPTER02
00:12:24.911 : en:CHAPTER03
00:18:02.123 : en:CHAPTER04
00:23:00.879 : en:CHAPTER05
00:30:54.352 : en:CHAPTER06
00:37:02.387 : en:CHAPTER07
00:42:14.073 : en:CHAPTER08
00:46:11.769 : en:CHAPTER09
00:51:07.314 : en:CHAPTER10
00:54:36.690 : en:CHAPTER11
01:00:48.812 : en:CHAPTER12
01:05:30.635 : en:CHAPTER13
01:10:15.670 : en:CHAPTER14
01:14:27.838 : en:CHAPTER15
01:19:21.090 : en:CHAPTER16

Скриншоты

-Источник:

_________________
dchub://neonhub37.no-ip.info:411
Показать сообщения:    

Текущее время: Сегодня 21:21

Часовой пояс: GMT



Вы не можете начинать темы
Вы не можете отвечать на сообщения
Вы не можете редактировать свои сообщения
Вы не можете удалять свои сообщения
Вы не можете голосовать в опросах
Вы не можете прикреплять файлы к сообщениям
Вы не можете скачивать файлы
Наши партнеры: интернет магазин Ивановского трикотажа textilla.ru