Важное объявление!
У Нас Все раздачи мультитрекерные, при нуле пиров в релизах, можете смело вставать на закачку!
 
Автор Сообщение

HUNTER

Стаж:
4 года 4 месяца
Сообщений:
56749

Репутация: 101

[+] [-]
Вне форума [Профиль] [ЛС]

Подруги президента / Dick
Страна: Франция, Канада, США
Жанр: комедия
Год выпуска: 1999
Продолжительность: 01:34:34
Перевод 1: Профессиональный (дублированный)
Перевод 2: Профессиональный (многоголосый закадровый)
Cубтитры: русские, английские
Оригинальная аудиодорожка: английский
Режиссер: Эндрю Флеминг / Andrew Fleming
В ролях: Кирстен Данст, Мишель Уильямс, Дэн Хедайя, Уилл Феррелл, Брюс МакКаллок, Тери Гарр, Дэйв Фоли, Джим Брюэр, Ана Гастейер, Гарри Ширер...
Описание: Во время экскурсии по Белому Дому подруги Бетси и Арлин случайно попадают в кабинет президента США и обнаруживают магнитофонную запись, которая может погубить карьеру Никсона.
Не подозревая о важности находки, девушки решают поиграть в шпионов и сообщают журналистам о скандальной пленке. С этой минуты судьба первого человека в государстве зависит от прихоти веселых подружек. Они идут по его следу, но даже не подозревают, куда может завести это шутливое расследование. Между тем все секретные службы начали за ними охоту…
Доп. информация: Синхронизация звука - Dreven.
Сэмпл: http://sendfile.su/1271680
Тип релиза: WEB-DL 720p
Контейнер: MKV
Видео: 1280x718 (16:9), 23.976 fps, AVC, ~3984 Kbps, 0.181 bits/pixel
Аудио 1: Russian, 48.0 KHz, AC3, 6 ch, 448 Kbps - Dub
Аудио 2: Russian, 48.0 KHz, AC3, 6 ch, 448 Kbps - MVO
Аудио 3: English, 48.0 KHz, AC3, 6 ch, 448 Kbps
Аудио 4: English, 48.0 KHz, AAC LC, 2 ch, 160 Kbps - WEB-DL AAC 2.0
[img]https://rating.kinopoisk.ru/2406.gif[/img]

MediaInfo

General
Unique ID : 191436405699208817757181679837764789510 (0x90054F84AC9577D690B10F8290262506)
Complete name : D:\Dick. WEB-DL 720p.mkv
Format : Matroska
Format version : Version 4 / Version 2
File size : 3.68 GiB
Duration : 1h 34mn
Overall bit rate : 5 569 Kbps
Movie name :
Encoded date : UTC 2016-10-06 05:41:45
Writing application : mkvmerge v9.4.2 ('So High') 64bit
Writing library : libebml v1.3.4 + libmatroska v1.4.5
Video
ID : 1
Format : AVC
Format/Info : Advanced Video Codec
Format profile : High@L3.1
Format settings, CABAC : No
Format settings, ReFrames : 2 frames
Codec ID : V_MPEG4/ISO/AVC
Duration : 1h 34mn
Bit rate : 4 063 Kbps
Width : 1 280 pixels
Height : 718 pixels
Display aspect ratio : 16:9
Frame rate mode : Constant
Frame rate : 23.976 (23976/1000) fps
Color space : YUV
Chroma subsampling : 4:2:0
Bit depth : 8 bits
Scan type : Progressive
Bits/(Pixel*Frame) : 0.184
Stream size : 2.68 GiB (73%)
Language : English
Default : Yes
Forced : No
Color range : Limited
Color primaries : BT.709
Transfer characteristics : BT.709
Matrix coefficients : BT.709
Audio #1
ID : 2
Format : AC-3
Format/Info : Audio Coding 3
Mode extension : CM (complete main)
Format settings, Endianness : Big
Codec ID : A_AC3
Duration : 1h 34mn
Bit rate mode : Constant
Bit rate : 448 Kbps
Channel(s) : 6 channels
Channel positions : Front: L C R, Side: L R, LFE
Sampling rate : 48.0 KHz
Frame rate : 31.250 fps (1536 spf)
Compression mode : Lossy
Stream size : 303 MiB (8%)
Language : Russian
Default : Yes
Forced : No
Audio #2
ID : 3
Format : AC-3
Format/Info : Audio Coding 3
Mode extension : CM (complete main)
Format settings, Endianness : Big
Codec ID : A_AC3
Duration : 1h 34mn
Bit rate mode : Constant
Bit rate : 448 Kbps
Channel(s) : 6 channels
Channel positions : Front: L C R, Side: L R, LFE
Sampling rate : 48.0 KHz
Frame rate : 31.250 fps (1536 spf)
Compression mode : Lossy
Stream size : 303 MiB (8%)
Language : Russian
Default : No
Forced : No
Audio #3
ID : 4
Format : AC-3
Format/Info : Audio Coding 3
Mode extension : CM (complete main)
Format settings, Endianness : Big
Codec ID : A_AC3
Duration : 1h 34mn
Bit rate mode : Constant
Bit rate : 448 Kbps
Channel(s) : 6 channels
Channel positions : Front: L C R, Side: L R, LFE
Sampling rate : 48.0 KHz
Frame rate : 31.250 fps (1536 spf)
Compression mode : Lossy
Stream size : 303 MiB (8%)
Language : English
Default : No
Forced : No
Audio #4
ID : 5
Format : AAC
Format/Info : Advanced Audio Codec
Format profile : LC
Codec ID : A_AAC
Duration : 1h 34mn
Bit rate : 158 Kbps
Channel(s) : 2 channels
Channel positions : Front: L R
Sampling rate : 48.0 KHz
Frame rate : 46.875 fps (1024 spf)
Compression mode : Lossy
Stream size : 107 MiB (3%)
Title : WEB-DL AAC 2.0
Language : English
Default : No
Forced : No
Text #1
ID : 6
Format : UTF-8
Codec ID : S_TEXT/UTF8
Codec ID/Info : UTF-8 Plain Text
Duration : 1h 30mn
Bit rate : 101 bps
Count of elements : 1272
Stream size : 67.0 KiB (0%)
Language : Russian
Default : No
Forced : No
Text #2
ID : 7
Format : UTF-8
Codec ID : S_TEXT/UTF8
Codec ID/Info : UTF-8 Plain Text
Duration : 1h 29mn
Bit rate : 59 bps
Count of elements : 1245
Stream size : 39.0 KiB (0%)
Language : English
Default : No
Forced : No
Menu
00:00:00.000 : en:Start
00:06:57.000 : en:Watergate Break In
00:09:33.000 : en:Creep List
00:11:34.000 : en:The West Wing
00:14:45.000 : en:Official Dog Walkers
00:19:21.000 : en:Hello Dollies
00:23:13.000 : en:Arlene's Plan
00:25:48.000 : en:Secret Recipe
00:27:38.000 : en:Shredders and Payoffs
00:29:10.000 : en:Secret Youth Advisors
00:31:09.000 : en:Storytellers
00:34:55.000 : en:"Hello Dolly"
00:36:59.000 : en:Dream Lover
00:38:53.000 : en:Double Entendre I
00:41:37.000 : en:The Liddy Connection
00:43:52.000 : en:A Message for Dick
00:48:54.000 : en:"You're A Bad Man"
00:52:11.000 : en:Double Entendre II
00:55:27.000 : en:Calling Bob Woodward
00:59:54.000 : en:Deep Throat
01:05:13.000 : en:A Few More Questions
01:07:55.000 : en:"I've Met Someone"
01:09:16.000 : en:Jobs Break-In
01:14:44.000 : en:Haldeman's House
01:22:20.000 : en:The Goods On Dick
01:24:37.000 : en:18 1/2 Minute Gap
01:26:26.000 : en:Dick Resigns
01:27:41.000 : en:"You're So Vain"

Скриншоты


_________________
Показать сообщения:    

Текущее время: Сегодня 23:52

Часовой пояс: GMT



Вы не можете начинать темы
Вы не можете отвечать на сообщения
Вы не можете редактировать свои сообщения
Вы не можете удалять свои сообщения
Вы не можете голосовать в опросах
Вы не можете прикреплять файлы к сообщениям
Вы не можете скачивать файлы