Важное объявление!
У Нас Все раздачи мультитрекерные, при нуле пиров в релизах, можете смело вставать на закачку!
 
Автор Сообщение

palych74

Стаж:
4 года 4 месяца
Сообщений:
80

Репутация: 21

[+] [-]
Вне форума [Профиль] [ЛС]

Подземный переход
Год выпуска: 2012
Производство: Россия
Жанр: Мелодрама
Продолжительность: 8 х ~ 00:45:16
Субтитры: нет
Режиссёр: Виктор Мережко-В ролях: Юлия Рудина, Варвара Щербакова, Игорь Скляр, Дмитрий Аверин, Сергей Перегудов, Владимир Кошевой, Кристина Бродская, Светлана Смирнова, Дарья Румянцева, Владимир Матвеев, Алексей Двоеглазов, Владимир Крылов-Описание: Человек идет по жизни, как по солнечной стороне улицы. Но спустившись, как ему кажется, на минуту в подземный переход, он попадает в другой мир, в котором нет места тому, что недавно составляло смысл его жизни, - семье, работе, любви... Кто-то спокойно пройдет через переход и выйдет на свет, а кто-то так и останется в этих сумерках, не найдя в себе сил преодолеть препятствия и идти дальше. Только никто не знает, когда каждый из нас окажется перед своим личным подземным переходом.-Семпл: http://multi-up.com/709569-Качество: SATRip
Формат: AVI
Видео кодек: XviD
Аудио кодек:
Видео:MPEG4, XviD, 720x384 (1.875), 25.000 fps, 1 348 Kbps (0.195 bit/pixel)
Аудио: MP3, 48.0 KHz, 2 ch, 192 Kbps, CBR
Реклама отсутствует!

Релиз: KinozalSAT

MediaInfo

General
Complete name : D:\Podzemnyi.perehod.2012.SATRip.KinozalSAT\Podzemnyi.perehod.01.2012.SATRip.KinozalSAT.avi
Format : AVI
Format/Info : Audio Video Interleave
File size : 550 MiB
Duration : 49mn 41s
Overall bit rate : 1 548 Kbps
Writing application : VirtualDubMod 1.5.4.1 (build 2178/release)
Writing library : VirtualDubMod build 2178/release
Video
ID : 0
Format : MPEG-4 Visual
Format profile : Advanced Simple@L5
Format settings, BVOP : 1
Format settings, QPel : No
Format settings, GMC : No warppoints
Format settings, Matrix : Custom
Codec ID : XVID
Codec ID/Hint : XviD
Duration : 49mn 41s
Bit rate : 1 348 Kbps
Width : 720 pixels
Height : 384 pixels
Display aspect ratio : 1.875
Frame rate : 25.000 fps
Color space : YUV
Chroma subsampling : 4:2:0
Bit depth : 8 bits
Scan type : Progressive
Compression mode : Lossy
Bits/(Pixel*Frame) : 0.195
Stream size : 479 MiB (87%)
Writing library : XviD 64
Audio
ID : 1
Format : MPEG Audio
Format version : Version 1
Format profile : Layer 3
Mode : Joint stereo
Codec ID : 55
Codec ID/Hint : MP3
Duration : 49mn 41s
Bit rate mode : Constant
Bit rate : 192 Kbps
Channel(s) : 2 channels
Sampling rate : 48.0 KHz
Compression mode : Lossy
Stream size : 68.2 MiB (12%)
Alignment : Aligned on interleaves
Interleave, duration : 80 ms (2.00 video frames)
Interleave, preload duration : 504 ms

Скриншоты

Показать сообщения:    

Текущее время: Сегодня 12:25

Часовой пояс: GMT



Вы не можете начинать темы
Вы не можете отвечать на сообщения
Вы не можете редактировать свои сообщения
Вы не можете удалять свои сообщения
Вы не можете голосовать в опросах
Вы не можете прикреплять файлы к сообщениям
Вы не можете скачивать файлы