Важное объявление!
У Нас Все раздачи мультитрекерные, при нуле пиров в релизах, можете смело вставать на закачку!
 
Автор Сообщение

HUNTER

Стаж:
4 года 4 месяца
Сообщений:
56822

Репутация: 101

[+] [-]
Вне форума [Профиль] [ЛС]

Подземелье драконов 3: Книга заклинаний / Dungeons & Dragons: The Book of Vile Darkness-
Год выпуска: 2012
Страна: Великобритания
Жанр: фэнтези, приключения
Продолжительность: 01:30:00
Перевод: Профессиональный (многоголосый закадровый)
Субтитры: French (UTF- -Режиссер: Джерри Лайвли
Сценарий: Брайан Рубник
Продюсер: Стив Ричардс, Стивен Бендер, Стивен А. Франкель
Оператор: Эмиль Топузов
Композитор: Ньютон Бразерс
Художник: Мишель Джонс, Эксел Николет, Ина Дамианова
Монтаж: Ребекка Вайгольд-В ролях: Миган Гуд / Meagan Good (Karima), Элеанор Гекс / Eleanor Gecks (Akordia), Джеймс Роулингс / James Rawlings (Barbarian), Энтони Хауэлл / Anthony Howell (Ranfin), Бо Брассо / Beau Brasseaux (в титрах: Beau Brasso) (Barbarian), Jack Derges (Grayson), Яна Титова / Yana Titova (Gorgeous Girl), Доминик Мафэм / Dominic Mafham (Mayor of Little Silver Keep), Алексис Дэниэл / Lex Daniel (Seith), Хабиб Назиб Нэйдер / Habib Nasib Nader (Vimak)
-Описание: 2000 лет назад могучий колдун Нагрул, вселявший в людские сердца страх и отчаяние, перед лицом смерти продал свою душу Демону, чтобы его полный ненависти дух выжил, когда его тело умрет. В мучительном ритуале, верные слуги сделали из кожи мага страницы, из раздробленных костей сделали обложку, а его мертвой кровью написали Книгу Заклинаний. Любой прочитавший ее, либо терял разум, либо, ослепленный темными знаниями, вставал на сторону Зла. Стремительно растущая армия тьмы покоряла все новые и новые территории, следуя наставлениям своего хозяина, сея хаос и разрушения.На борьбу со Злом встал Орден Рыцарей Нового Солнца. Чистота их сердец была так велика, что Пела — бог света, даровал им могучие амулеты, с помощью которых воинам удалось разбить огромную армию врага. Но верные служители Нагрула успели спрятать книгу. И никто из ордена не мог найти ее. Постепенно поиски прекратились. Воцарившейся мир быстро стер в памяти людей темные времена. Но слуги Нагрула только ждали подходящего момента…-Премьера (мир): 24 ноября 2012
Релиз на DVD: 23 октября 2012, «Lizard Cinema Trade»-Рейтинг:-Качество: BDRip
Формат: MKV
Видео кодек: AVC
Аудио кодеk: AC3
Видео: 1280x720 (16:9), 23.976 fps, AVC, 5 435 Kbps
Аудио: Русский: AC3, 448 Kbps, 48.0 KHz, 6 ch
Французский: DTS, 1 510 Kbps, 48.0 KHz, 6 ch
-

МедиаИнфо

Код: copyText_writeLink('this.parentNode.parentNode.nextSibling.nextSibling'); General
Complete name : Podzemele.drakonov.3.2012.P.BDRip.720p.mkv
Format : Matroska
File size : 4.64 GiB
Duration : 1h 30mn
Overall bit rate : 7 385 Kbps
Encoded date : UTC 2010-02-22 21:41:31
Writing application : mkvmerge v5.9.0 ('On The Loose') built on Dec 9 2012 15:37:01
Writing library : libebml v1.3.0 + libmatroska v1.4.0
Video
ID : 1
Format : AVC
Format/Info : Advanced Video Codec
Format profile : [url=mailto:High@L4.1]High@L4.1[/url]
Format settings, CABAC : Yes
Format settings, ReFrames : 5 frames
Muxing mode : Container profile=Unknown@4.1
Codec ID : V_MPEG4/ISO/AVC
Duration : 1h 30mn
Bit rate : 5 435 Kbps
Width : 1 280 pixels
Height : 720 pixels
Display aspect ratio : 16:9
Frame rate : 23.976 fps
Color space : YUV
Chroma subsampling : 4:2:0
Bit depth : 8 bits
Scan type : Progressive
Bits/(Pixel*Frame) : 0.246
Stream size : 3.32 GiB (72%)
Writing library : x264 core 129 r2230 1cffe9f
Encoding settings : cabac=1 / ref=5 / deblock=1:0:0 / analyse=0x3:0x133 / me=umh / subme=7 / psy=1 / psy_rd=1.00:0.00 / mixed_ref=1 / me_range=16 / chroma_me=1 / trellis=1 / 8x8dct=1 / cqm=0 / deadzone=21,11 / fast_pskip=0 / chroma_qp_offset=-2 / threads=24 / lookahead_threads=4 / sliced_threads=0 / nr=0 / decimate=1 / interlaced=0 / bluray_compat=0 / constrained_intra=0 / bframes=3 / b_pyramid=2 / b_adapt=1 / b_bias=0 / direct=1 / weightb=1 / open_gop=0 / weightp=2 / keyint=250 / keyint_min=23 / scenecut=40 / intra_refresh=0 / rc=2pass / mbtree=0 / bitrate=5435 / ratetol=1.0 / qcomp=0.60 / qpmin=0 / qpmax=69 / qpstep=4 / cplxblur=20.0 / qblur=0.5 / ip_ratio=1.40 / pb_ratio=1.30 / aq=1:1.00
Audio #1
ID : 2
Format : AC-3
Format/Info : Audio Coding 3
Mode extension : CM (complete main)
Codec ID : A_AC3
Duration : 1h 30mn
Bit rate mode : Constant
Bit rate : 448 Kbps
Channel(s) : 6 channels
Channel positions : Front: L C R, Side: L R, LFE
Sampling rate : 48.0 KHz
Bit depth : 16 bits
Stream size : 288 MiB (6%)
Audio #2
ID : 3
Format : DTS
Format/Info : Digital Theater Systems
Codec ID : A_DTS
Duration : 1h 30mn
Bit rate mode : Constant
Bit rate : 1 510 Kbps
Channel(s) : 6 channels
Channel positions : Front: L C R, Side: L R, LFE
Sampling rate : 48.0 KHz
Bit depth : 24 bits
Stream size : 972 MiB (20%)
Title : french
Language : French
Text
ID : 4
Format : UTF-8
Codec ID : S_TEXT/UTF8
Codec ID/Info : UTF-8 Plain Text
Title : french forced
Language : French
Menu
00:00:00.000 : en:00:00:00.000
00:10:03.228 : en:00:10:03.228
00:20:03.619 : en:00:20:03.619
00:30:02.592 : en:00:30:02.592
00:40:03.568 : en:00:40:03.568
00:50:03.918 : en:00:50:03.918
01:00:04.518 : en:01:00:04.518
01:10:07.161 : en:01:10:07.161
01:20:11.223 : en:01:20:11.223
-
- -

_________________
Показать сообщения:    

Текущее время: Сегодня 08:30

Часовой пояс: GMT



Вы не можете начинать темы
Вы не можете отвечать на сообщения
Вы не можете редактировать свои сообщения
Вы не можете удалять свои сообщения
Вы не можете голосовать в опросах
Вы не можете прикреплять файлы к сообщениям
Вы не можете скачивать файлы