Важное объявление!
У Нас Все раздачи мультитрекерные, при нуле пиров в релизах, можете смело вставать на закачку!
 
Автор Сообщение

HUNTER

Стаж:
4 года 4 месяца
Сообщений:
56772

Репутация: 101

[+] [-]
Вне форума [Профиль] [ЛС]

Под подозрением / Under Suspicion
Страна: США, Франция
Студия: Revelations Entertainment, TF1 International
Жанр: триллер, драма, криминал
Год выпуска: 2000
Продолжительность: 01:50:57
Перевод 1: Профессиональный (многоголосый закадровый) Неоклассика
Перевод 2: Профессиональный (многоголосый закадровый) 1 канал
Перевод 3: Авторский (одноголосый закадровый) Юрий Живов
Перевод 4: Авторский (одноголосый закадровый) Сергей Кузнецов
Cубтитры: русские, английские
Оригинальная аудиодорожка: английский
Режиссер: Стивен Хопкинс / Stephen Hopkins
В ролях: Джин Хэкмен, Морган Фриман, Томас Джейн, Моника Беллуччи, Нидия Каро, Мигель Анхел, Суарес Пабло, Канкуэро Изабель, Альгазе Жаклин, Дюпрей Луис Кабальеро и др.
Описание: Столица Пуэрто-Рико искрится праздничными огнями, влиятельный адвокат Генри Хёрст спешит на благотворительный бал. Но сначала ему нужно ответить на вопросы инспектора полиции Виктора Бенезэ касательно трупа, найденного им в парке.
Стареющий миллионер еще не знает, что этот вечер станет самым трагичным в его жизни, ибо в ближайшие часы ему предстоит выдержать жестокую интеллектуальную дуэль с опытным детективом, который обвинит его в бесчеловечных убийствах и изнасилованиях девочек из трущоб.
Все факты свидетельствуют против адвоката, но что-то настораживает проницательного сыщика, и вскоре он понимает, что узнает истину, только если заглянет в самые мрачные уголки души блистательного Генри Хёрста.
II Сэмпл II IMDB II
Доп. информация:
За перевод 1 канала спасибо mister55555
За многоголоску Неоклассика и оригинальную пятиканалку спасибо Enclave76
Тип релиза: WEB-DL 720p
Контейнер: MKV
Видео: AVC / 1278x720 / 16:9 / 23.976fps / Bit rate 4032Kbps
Аудио 1: AC3 / 48.0 KHz / 5ch. / 448kbps / rus / MVO / Неоклассика
Аудио 2: AC3 / 48.0 KHz / 2ch. / 192kbps / rus / MVO / 1 канал
Аудио 3: AC3 / 48.0 KHz / 2ch. / 192kbps / rus / MVO / Юрий Живов
Аудио 4: AC3 / 48.0 KHz / 2ch. / 192kbps / rus / MVO / Сергей Кузнецов
Аудио 5: AC3 / 48.0 KHz / 5ch. / 448kbps / eng / DVD
Аудио 6: AAC-LC / 48.0 KHz / 2ch. / 159kbps / eng / WEB-DL
Формат субтитров: softsub (SRT)

MediaInfo

Общее
Уникальный идентификатор : 172208014253601282804836430032115332514 (0x818E0EA02AA26E16895E809F7303F5A2)
Полное имя : G:\!!!_torrent\Under.Suspicion.2000.WEB-DL.720p.by_vedigo.mkv
Формат : Matroska
Версия формата : Version 4 / Version 2
Размер файла : 4,45 Гбайт
Продолжительность : 1 ч. 50 м.
Общий поток : 5746 Кбит/сек
Название фильма : Under.Suspicion.2000.WEB-DL.720p.by_vedigo
Дата кодирования : UTC 2015-11-30 06:32:27
Программа кодирования : mkvmerge v8.6.1 ('Flying') 64bit
Библиотека кодирования : libebml v1.3.3 + libmatroska v1.4.4
DURATION : 01:50:57.440000000
NUMBER_OF_FRAMES : 208045
NUMBER_OF_BYTES : 159778560
_STATISTICS_WRITING_APP : mkvmerge v8.6.1 ('Flying') 64bit
_STATISTICS_WRITING_DATE_UTC : 2015-11-30 06:32:27
_STATISTICS_TAGS : BPS DURATION NUMBER_OF_FRAMES NUMBER_OF_BYTES
Видео
Идентификатор : 1
Формат : AVC
Формат/Информация : Advanced Video Codec
Профиль формата : High@L3.1
Параметр CABAC формата : Нет
Параметр ReFrames формата : 2 кадра
Идентификатор кодека : V_MPEG4/ISO/AVC
Продолжительность : 1 ч. 50 м.
Ширина : 1278 пикселей
Высота : 720 пикселей
Соотношение сторон : 16:9
Режим частоты кадров : Постоянный
Частота кадров : 23,976 кадра/сек
Цветовое пространство : YUV
Субдискретизация насыщенности : 4:2:0
Битовая глубина : 8 бит
Тип развёртки : Прогрессивная
Заголовок : Under.Suspicion.2000.WEB-DL.720p.by_vedigo
Язык : English
Default : Да
Forced : Нет
Цветовой диапазон : Limited
Основные цвета : BT.709
Характеристики трансфера : BT.709
Коэффициенты матрицы : BT.709
Аудио #1
Идентификатор : 2
Формат : AC-3
Формат/Информация : Audio Coding 3
Расширение режима : CM (complete main)
Параметр Endianness формата : Big
Идентификатор кодека : A_AC3
Продолжительность : 1 ч. 50 м.
Вид битрейта : Постоянный
Битрейт : 448 Кбит/сек
Каналы : 5 каналов
Расположение каналов : Front: L C R, Side: L R
Частота : 48,0 КГц
Метод сжатия : С потерями
Размер потока : 356 Мбайт (8%)
Заголовок : MVO
Язык : Russian
Default : Да
Forced : Нет
Аудио #2
Идентификатор : 3
Формат : AC-3
Формат/Информация : Audio Coding 3
Расширение режима : CM (complete main)
Параметр Endianness формата : Big
Идентификатор кодека : A_AC3
Продолжительность : 1 ч. 50 м.
Вид битрейта : Постоянный
Битрейт : 192 Кбит/сек
Каналы : 2 канала
Расположение каналов : Front: L R
Частота : 48,0 КГц
Метод сжатия : С потерями
Размер потока : 152 Мбайт (3%)
Заголовок : MVO @ 1 канал
Язык : Russian
Default : Нет
Forced : Нет
Аудио #3
Идентификатор : 4
Формат : AC-3
Формат/Информация : Audio Coding 3
Расширение режима : CM (complete main)
Параметр Endianness формата : Big
Идентификатор кодека : A_AC3
Продолжительность : 1 ч. 50 м.
Вид битрейта : Постоянный
Битрейт : 192 Кбит/сек
Каналы : 2 канала
Расположение каналов : Front: L R
Частота : 48,0 КГц
Метод сжатия : С потерями
Размер потока : 152 Мбайт (3%)
Заголовок : AVO @ Юрий Живов
Язык : Russian
Default : Нет
Forced : Нет
Аудио #4
Идентификатор : 5
Формат : AC-3
Формат/Информация : Audio Coding 3
Расширение режима : CM (complete main)
Параметр Endianness формата : Big
Идентификатор кодека : A_AC3
Продолжительность : 1 ч. 50 м.
Вид битрейта : Постоянный
Битрейт : 192 Кбит/сек
Каналы : 2 канала
Расположение каналов : Front: L R
Частота : 48,0 КГц
Метод сжатия : С потерями
Размер потока : 152 Мбайт (3%)
Заголовок : AVO @ Сергей Кузнецов
Язык : Russian
Default : Нет
Forced : Нет
Аудио #5
Идентификатор : 6
Формат : AC-3
Формат/Информация : Audio Coding 3
Расширение режима : CM (complete main)
Параметр Endianness формата : Big
Идентификатор кодека : A_AC3
Продолжительность : 1 ч. 50 м.
Вид битрейта : Постоянный
Битрейт : 448 Кбит/сек
Каналы : 5 каналов
Расположение каналов : Front: L C R, Side: L R
Частота : 48,0 КГц
Метод сжатия : С потерями
Размер потока : 356 Мбайт (8%)
Заголовок : eng @ DVD
Язык : English
Default : Нет
Forced : Нет
Аудио #6
Идентификатор : 7
Формат : AAC
Формат/Информация : Advanced Audio Codec
Профиль формата : LC
Идентификатор кодека : A_AAC
Продолжительность : 1 ч. 50 м.
Каналы : 2 канала
Расположение каналов : Front: L R
Частота : 48,0 КГц
Метод сжатия : С потерями
Заголовок : eng @ WEB-DL
Язык : English
Default : Нет
Forced : Нет
Текст #1
Идентификатор : 8
Формат : UTF-8
Идентификатор кодека : S_TEXT/UTF8
Идентификатор кодека/Информация : UTF-8 Plain Text
Заголовок : subtitle eng
Язык : English
Default : Нет
Forced : Нет
Текст #2
Идентификатор : 9
Формат : UTF-8
Идентификатор кодека : S_TEXT/UTF8
Идентификатор кодека/Информация : UTF-8 Plain Text
Заголовок : subtitle rus
Язык : Russian
Default : Нет
Forced : Нет
Меню
00:00:00.000 : en:Start
00:11:50.000 : en:Nagging Questions
00:15:47.000 : en:Discovering The Body
00:18:28.000 : en:Out To Get Him?
00:22:14.000 : en:Lame Dog Story
00:23:37.000 : en:On The Record
00:25:59.000 : en:Reporting The Crime
00:29:38.000 : en:The First Murder
00:31:02.000 : en:The Superintendent
00:33:06.000 : en:At Maria's
00:35:25.000 : en:Park Bench Alibi
00:37:18.000 : en:An Outrage!
00:43:30.000 : en:Detained On Suspicion
00:47:52.000 : en:Provoking Henry
00:52:40.000 : en:The Speech
00:57:58.000 : en:A Chat With Chantal
01:00:16.000 : en:3:30 A.M.
01:05:39.000 : en:Sex Substitute
01:07:33.000 : en:Reina
01:09:24.000 : en:Coincidences
01:11:25.000 : en:Hard Body Hank
01:15:33.000 : en:Christmas Day
01:19:57.000 : en:Fond Of Older Men
01:24:27.000 : en:His Side Of The Story
01:28:56.000 : en:Trophy
01:33:46.000 : en:Portraits Of A Killer
01:38:55.000 : en:"I'm The One."
01:41:27.000 : en:Caught In The Act

Скриншоты



_________________
Показать сообщения:    

Текущее время: Сегодня 09:55

Часовой пояс: GMT



Вы не можете начинать темы
Вы не можете отвечать на сообщения
Вы не можете редактировать свои сообщения
Вы не можете удалять свои сообщения
Вы не можете голосовать в опросах
Вы не можете прикреплять файлы к сообщениям
Вы не можете скачивать файлы