Важное объявление!
У Нас Все раздачи мультитрекерные, при нуле пиров в релизах, можете смело вставать на закачку!
 
Автор Сообщение

HUNTER

Стаж:
4 года 4 месяца
Сообщений:
56722

Репутация: 101

[+] [-]
Вне форума [Профиль] [ЛС]

-1 сезон, 1-13серии-
-Год выпуска: 2013
Страна: США
Жанр: фантастика, ужасы
Продолжительность: 3 х ~43 мин
Перевод: профессиональный многоголосый закадровый (AlexFilm)
Субтитры: нет
-Режиссёры: Джек Бендер, Нильс Арден Оплев, Кари Скогланд, Мигель Сапочник, Серджо Мимика-Геззан
В ролях: Майк Фогель, Колин Форд, Аиша Хиндс, Александр Кох, Рашель Лефевр, Натали Мартинез, Дин Норрис, Джолин Парди, Бриттани Робертсон, Николас Стронг, Нед Беллами, Дэйл Рауль, Р. Кейт Харрис, Стив Болдуин, Шерри Боулинг, Кевин Сайзмор, Эндрю Фогель, Джеймс Алком, Линдс Эдвардс, Джефф Фэйи, Кристал Мартинез, Маккензи Линтц
-Описание: Обычным погожим осенним днем город Честерс Милл, штат Мэн, оказывается внезапно отрезанным от остального мира невидимым барьером. В купол врезается самолет. Загадочное силовое поле не щадит ни постройки, ни автомобили, ни животных, ни людей. Выехавшие в соседний город по делам не могут вернуться к своим близким. Никто не понимает, что это за барьер, откуда он взялся и исчезнет ли.
Дейл Барбара, ветеран войны в Ираке, а ныне повар, теперь в одной команде с несколькими отважными жителями — Джулией Шамвей, владелицей городской газеты, помощником врача, женщиной и тремя храбрыми детьми. Против них выступает Большой Джим Ренни — местный политический деятель, который для удержания власти не остановится ни перед чем, даже перед убийством, а также его сын со своим личным «скелетом в шкафу». Но главный их противник — сам Купол…
-Релиз:
Перевод: Ольга Галайда
Монтаж и сведение звука: Сергей Мартынов (1, 7-9, 11), Михаил Шорыгин (2-6, 10, 12, 13)
Роли озвучивали:
  • Евгения Тихонова
  • Пётр Иващенко (Гланц)
  • Михаил Суслов
  • Михаил Шорыгин
  • Владимир Курдов
- -Качество: WEB-DL 1080p
Формат: MKV
Видео кодек: H.264
Аудио кодек: AC3
Видео: 1920x1080 (16:9), 23.976 fps, MPEG-4 AVC ~4840 kbps avg, 0.097 bit/pixel
Аудио Rus: 48 kHz, AC3 Dolby Digital, 3/2 (L,C,R,l,r) + LFE ch, ~384.00 kbps avg
Аудио Eng: 48 kHz, AC3 Dolby Digital, 3/2 (L,C,R,l,r) + LFE ch, ~384.00 kbps avg

Список серий


1.Пилот (Pilot)
2. Пожар (The Fire)
3. Облава (Manhunt)
4. Эпидемия (Outbreak)
5. Удар по своим (Blue On Blue)
6. Бесконечная жажда (The Endless Thirst)
7. Неровные круги (Imperfect Circles)
8. Кровь не вода (Thicker Than Water)
9. Четвёртая рука (The Fourth Hand)
10. Да начнутся игры (Let the Games Begin)
11. Легок на помине (Speak of the Devil)
12. Неотложные обстоятельства (Exigent Circumstances)
13. Занавес (Curtains)

Скриншоты


MediaInfo


General
Format : Matroska
Format version : Version 4 / Version 2
File size : 1.71 GiB
Duration : 42mn 47s
Overall bit rate : 5 715 Kbps
Encoded date : UTC 2013-06-27 15:07:09
Writing application : mkvmerge v6.2.0 ('Promised Land') built on Apr 28 2013 12:22:01
Writing library : libebml v1.3.0 + libmatroska v1.4.0
Video
ID : 1
Format : AVC
Format/Info : Advanced Video Codec
Format profile : [url=mailto:High@L4.0]High@L4.0[/url]
Format settings, CABAC : Yes
Format settings, ReFrames : 4 frames
Codec ID : V_MPEG4/ISO/AVC
Duration : 42mn 47s
Bit rate : 4 833 Kbps
Width : 1 920 pixels
Height : 1 080 pixels
Display aspect ratio : 16:9
Frame rate mode : Constant
Frame rate : 23.976 fps
Color space : YUV
Chroma subsampling : 4:2:0
Bit depth : 8 bits
Scan type : Progressive
Bits/(Pixel*Frame) : 0.097
Stream size : 1.44 GiB (85%)
Language : English
Default : Yes
Forced : No
Color primaries : BT.709
Transfer characteristics : BT.709
Matrix coefficients : BT.709
Audio #1
ID : 2
Format : AC-3
Format/Info : Audio Coding 3
Mode extension : CM (complete main)
Format settings, Endianness : Big
Codec ID : A_AC3
Duration : 42mn 47s
Bit rate mode : Constant
Bit rate : 384 Kbps
Channel(s) : 6 channels
Channel positions : Front: L C R, Side: L R, LFE
Sampling rate : 48.0 KHz
Bit depth : 16 bits
Compression mode : Lossy
Stream size : 118 MiB (7%)
Language : Russian
Default : Yes
Forced : No
Audio #2
ID : 3
Format : AC-3
Format/Info : Audio Coding 3
Mode extension : CM (complete main)
Format settings, Endianness : Big
Codec ID : A_AC3
Duration : 42mn 47s
Bit rate mode : Constant
Bit rate : 384 Kbps
Channel(s) : 6 channels
Channel positions : Front: L C R, Side: L R, LFE
Sampling rate : 48.0 KHz
Bit depth : 16 bits
Compression mode : Lossy
Stream size : 118 MiB (7%)
Language : English
Default : No
Forced : No
Text
ID : 4
Format : UTF-8
Codec ID : S_TEXT/UTF8
Codec ID/Info : UTF-8 Plain Text
Title : CC
Language : English
Default : No
Forced : No
Внимание!!! Раздача ведется путем добавления новых серий.

_________________
Показать сообщения:    

Текущее время: Сегодня 14:11

Часовой пояс: GMT



Вы не можете начинать темы
Вы не можете отвечать на сообщения
Вы не можете редактировать свои сообщения
Вы не можете удалять свои сообщения
Вы не можете голосовать в опросах
Вы не можете прикреплять файлы к сообщениям
Вы не можете скачивать файлы