Важное объявление!
У Нас Все раздачи мультитрекерные, при нуле пиров в релизах, можете смело вставать на закачку!
 
Автор Сообщение

HUNTER

Стаж:
4 года 4 месяца
Сообщений:
56765

Репутация: 101

[+] [-]
Вне форума [Профиль] [ЛС]

Поговорим о сексе / Speaking of Sex
Страна: Канада, США, Франция
Жанр: мелодрама, комедия
Год выпуска: 2001
Продолжительность: 01:40:51
Перевод: Профессиональный (двухголосый закадровый) West Video
Cубтитры: русские, английские
Оригинальная аудиодорожка: английский
Режиссер: Джон МакНотон / John McNaughton
В ролях: Лара Флинн Бойл, Джей Мор, Билл Мюррей, Кэтрин О’Хара, Джеймс Спэйдер, Мелора Уолтерс, Натаниель Арканд, Меган Маллалли, Ник Офферман, Грег Питтс...
Описание: Когда все обычные (и необычные тоже) способы вернуть утраченную страсть иссякли, супруги: Дэн и Мелинда обратились к консультантам. Увлекшись терапией, кое-кто из них потерял над собой контроль, чем сразу воспользовались заинтересованные люди.
Назревало скандальное дело, и в воздухе запахло очень большими деньгами. Раздираемые противоречиями, Дэн с Мелиндой совсем запутались в сетях интриги, сулящей миллионы…
Доп. информация: 5.1 с DVD дутые, во всех каналах идёт речь.
Сэмпл: http://multi-up.com/1057930
Тип релиза: WEB-DL 720p
Контейнер: MKV
Видео: 1280x686 (1.866), 23.976 fps, AVC, ~3966 Kbps, 0.188 bits/pixel
Аудио 1: Russian, 48.0 KHz, AC3, 2 ch, 192 Kbps - West Video
Аудио 2: English, 48.0 KHz, AC3, 2 ch, 192 Kbps

MediaInfo

General
Unique ID : 243466134743105295961570450782565054786 (0xB729DF371B0FCFD8BBCA389FAA663942)
Complete name : D:\Speaking of Sex. WEB-DL 720p.mkv
Format : Matroska
Format version : Version 4 / Version 2
File size : 3.13 GiB
Duration : 1h 40mn
Overall bit rate : 4 438 Kbps
Movie name :
Encoded date : UTC 2015-06-21 17:38:21
Writing application : mkvmerge v8.0.0 ('Til The Day That I Die') 64bit
Writing library : libebml v1.3.1 + libmatroska v1.4.2
DURATION : 01:36:07.390000000
NUMBER_OF_FRAMES : 1295
NUMBER_OF_BYTES : 90962
_STATISTICS_WRITING_APP : mkvmerge v8.0.0 ('Til The Day That I Die') 64bit
_STATISTICS_WRITING_DATE_UT : 2015-06-21 17:38:21
_STATISTICS_TAGS : BPS DURATION NUMBER_OF_FRAMES NUMBER_OF_BYTES
Video
ID : 1
Format : AVC
Format/Info : Advanced Video Codec
Format profile : High@L3.1
Format settings, CABAC : No
Format settings, ReFrames : 2 frames
Codec ID : V_MPEG4/ISO/AVC
Duration : 1h 40mn
Bit rate : 3 966 Kbps
Width : 1 280 pixels
Height : 686 pixels
Display aspect ratio : 1.85:1
Frame rate mode : Constant
Frame rate : 23.976 fps
Color space : YUV
Chroma subsampling : 4:2:0
Bit depth : 8 bits
Scan type : Progressive
Bits/(Pixel*Frame) : 0.188
Stream size : 2.79 GiB (89%)
Language : English
Default : Yes
Forced : No
Color range : Limited
Color primaries : BT.709
Transfer characteristics : BT.709
Matrix coefficients : BT.709
Audio #1
ID : 2
Format : AC-3
Format/Info : Audio Coding 3
Mode extension : CM (complete main)
Format settings, Endianness : Big
Codec ID : A_AC3
Duration : 1h 40mn
Bit rate mode : Constant
Bit rate : 192 Kbps
Channel(s) : 2 channels
Channel positions : Front: L R
Sampling rate : 48.0 KHz
Compression mode : Lossy
Stream size : 139 MiB (4%)
Title : West Video
Language : Russian
Default : Yes
Forced : No
Audio #2
ID : 3
Format : AC-3
Format/Info : Audio Coding 3
Mode extension : CM (complete main)
Format settings, Endianness : Big
Codec ID : A_AC3
Duration : 1h 40mn
Bit rate mode : Constant
Bit rate : 192 Kbps
Channel(s) : 2 channels
Channel positions : Front: L R
Sampling rate : 48.0 KHz
Compression mode : Lossy
Stream size : 139 MiB (4%)
Language : English
Default : No
Forced : No
Text #1
ID : 4
Format : UTF-8
Codec ID : S_TEXT/UTF8
Codec ID/Info : UTF-8 Plain Text
Language : Russian
Default : No
Forced : No
Text #2
ID : 5
Format : UTF-8
Codec ID : S_TEXT/UTF8
Codec ID/Info : UTF-8 Plain Text
Language : English
Default : No
Forced : No
Menu
00:00:00.000 : en:Main Title/Sex
00:08:53.000 : en:Honesty First
00:17:26.000 : en:Dr. Majestic
00:27:14.000 : en:Mr. Happy
00:34:59.000 : en:Nosta
00:42:46.000 : en:Every Detail Is Important
00:56:06.000 : en:Dirty Details
01:04:35.000 : en:The Problem
01:13:26.000 : en:National News
01:21:47.000 : en:Both Win
01:29:12.000 : en:Settle Out Of Court
01:36:47.000 : en:End Credits

Скриншоты


_________________
Показать сообщения:    

Текущее время: Сегодня 19:37

Часовой пояс: GMT



Вы не можете начинать темы
Вы не можете отвечать на сообщения
Вы не можете редактировать свои сообщения
Вы не можете удалять свои сообщения
Вы не можете голосовать в опросах
Вы не можете прикреплять файлы к сообщениям
Вы не можете скачивать файлы