Важное объявление!
У Нас Все раздачи мультитрекерные, при нуле пиров в релизах, можете смело вставать на закачку!
 
Автор Сообщение

димитри37

Стаж:
3 года 9 месяцев
Сообщений:
1237

Репутация: 127

[+] [-]
Вне форума [Профиль] [ЛС]

Побочный эффект / Side Effects
Страна: США
Студия: Di Bonaventura Pictures, Endgame Entertainment
Жанр: триллер, драма, криминал
Год выпуска: 2013
Продолжительность: 01:46:22
Перевод: Профессиональный (дублированный) R5
Cубтитры: нет
Режиссер: Стивен Содерберг / Steven Soderbergh
В ролях: Джуд Лоу, Руни Мара, Кэтрин Зета-Джонс, Ченнинг Татум, Кармен Пелаес, Марин Айрлэнд, Полли Дрэйпер, Аральдо Альварес, Джеймс Мартинез, Владимир Версейл, Жаклин Антарамиан, Мишель Вергара Мур, Кэти Лоус, Дэвид Костабайл, Мэми Гаммер, Стивен Платт, Виктор Круз, Винесса Шоу, Элизабет Родригез, Питер Фридман, Андреа Богарт, Лайла Робинс
Описание: Жизнь главной героини Эмили Хоукинс пошла под откос, когда её мужа посадили в тюрьму. Вначале она пыталась спастись от депрессии своими силами, горстями глотая успокоительное. После того, как стало понятно, что это не поможет, Эмили не оставалось другого выхода кроме отправления в психиатрическую лечебницу к добрым и заботливым людям в белых халатах. Теперь главная героиня борется со своими внутренними демонами уже не одна — справиться с угнетённым состоянием ей помогают два лучших доктора клиники, а также экспериментальные препараты, обладающие довольно странными побочными эффектами. Не получится ли так, что все внутренние страхи Эмили вместо того, чтобы исчезнуть, вырвутся наружу?

Релиз: fanatus
Качество видео: BDRip (AVC)
Исходник: Blu-Ray Remux (1080p)
Контейнер: MKV
Видео: MPEG-4 AVC, 1504 kbps , 1024x554 (1.85:1), 23.976 fps, 0.111 bit/pixel
Аудио: русский (AC3, 6 ch, 48 kHz, 448 kbps)
Главы: есть

MediaInfo

General
Unique ID : 201097417918352778308766837814833545497 (0x9749F4322FD74130920AD47B880D8119)
Complete name : D:\Pobochnyj.jeffekt.2013.x264.BDRip.(AVC).fanatus.mkv
Format : Matroska
Format version : Version 2
File size : 1.45 GiB
Duration : 1h 46mn
Overall bit rate : 1 953 Kbps
Movie name : Side Effects (2013) - fanatus
Encoded date : UTC 2013-05-10 22:02:56
Writing application : mkvmerge v3.4.0 ('Rapunzel') сборка от May 15 2010 09:38:20
Writing library : libebml v0.8.0 + libmatroska v0.9.0
Video
ID : 1
Format : AVC
Format/Info : Advanced Video Codec
Format profile : High@L4.1
Format settings, CABAC : Yes
Format settings, ReFrames : 12 frames
Codec ID : V_MPEG4/ISO/AVC
Duration : 1h 46mn
Bit rate : 1 504 Kbps
Width : 1 024 pixels
Height : 554 pixels
Display aspect ratio : 1.85:1
Frame rate : 23.976 fps
Color space : YUV
Chroma subsampling : 4:2:0
Bit depth : 8 bits
Scan type : Progressive
Bits/(Pixel*Frame) : 0.111
Stream size : 1.09 GiB (75%)
Title : Side Effects (2013)
Writing library : x264 core 132 r2310 76a5c3a
Encoding settings : cabac=1 / ref=12 / deblock=1:-3:-3 / analyse=0x3:0x113 / me=umh / subme=11 / psy=1 / psy_rd=1.05:0.00 / mixed_ref=1 / me_range=48 / chroma_me=1 / trellis=2 / 8x8dct=1 / cqm=0 / deadzone=21,11 / fast_pskip=0 / chroma_qp_offset=-2 / threads=16 / lookahead_threads=4 / sliced_threads=0 / nr=0 / decimate=0 / interlaced=0 / bluray_compat=0 / constrained_intra=0 / bframes=14 / b_pyramid=2 / b_adapt=2 / b_bias=0 / direct=3 / weightb=1 / open_gop=0 / weightp=2 / keyint=240 / keyint_min=23 / scenecut=40 / intra_refresh=0 / rc_lookahead=240 / rc=2pass / mbtree=1 / bitrate=1504 / ratetol=1.0 / qcomp=0.70 / qpmin=0 / qpmax=55 / qpstep=4 / cplxblur=20.0 / qblur=0.5 / vbv_maxrate=50000 / vbv_bufsize=62500 / nal_hrd=none / ip_ratio=1.30 / aq=1:0.85
Language : English
Default : Yes
Forced : No
Audio
ID : 2
Format : AC-3
Format/Info : Audio Coding 3
Mode extension : CM (complete main)
Format settings, Endianness : Big
Codec ID : A_AC3
Duration : 1h 46mn
Bit rate mode : Constant
Bit rate : 448 Kbps
Channel(s) : 6 channels
Channel positions : Front: L C R, Side: L R, LFE
Sampling rate : 48.0 KHz
Bit depth : 16 bits
Compression mode : Lossy
Stream size : 341 MiB (23%)
Title : Dub
Language : Russian
Default : Yes
Forced : No
Menu
00:00:00.000 : en:Chapter 01
00:05:00.000 : en:Chapter 02
00:10:00.000 : en:Chapter 03
00:15:00.000 : en:Chapter 04
00:20:00.000 : en:Chapter 05
00:25:00.000 : en:Chapter 06
00:30:00.000 : en:Chapter 07
00:35:00.000 : en:Chapter 08
00:40:00.000 : en:Chapter 09
00:45:00.000 : en:Chapter 10
00:50:00.000 : en:Chapter 11
00:55:00.000 : en:Chapter 12
01:00:00.000 : en:Chapter 13
01:05:00.000 : en:Chapter 14
01:10:00.000 : en:Chapter 15
01:15:00.000 : en:Chapter 16
01:20:00.000 : en:Chapter 17
01:25:00.000 : en:Chapter 18
01:30:00.000 : en:Chapter 19
01:35:00.000 : en:Chapter 20
01:40:00.000 : en:Chapter 21
01:45:00.000 : en:Chapter 22

x264 [info]

---[NoImage] raw [info]: 1024x554p 1:1 @ 24000/1001 fps (cfr)
---[NoImage] x264 [info]: using SAR=1/1
---[NoImage] x264 [info]: using cpu capabilities: MMX2 SSE2Fast SSEMisalign LZCNT
---[NoImage] x264 [info]: profile High, level 4.1
---[NoImage]
---[NoImage] x264 [info]: frame I:1051 Avg QP:14.60 size: 77340
---[NoImage] x264 [info]: frame P:27976 Avg QP:17.85 size: 19148
---[NoImage] x264 [info]: frame B:124000 Avg QP:19.00 size: 4698
---[NoImage] x264 [info]: consecutive B-frames: 1.4% 1.6% 5.0% 7.8% 9.2% 54.5% 5.6% 3.3% 1.5% 1.4% 1.7% 2.9% 2.0% 1.5% 0.6%
---[NoImage] x264 [info]: mb I I16..4: 11.7% 70.0% 18.2%
---[NoImage] x264 [info]: mb P I16..4: 0.5% 3.5% 0.5% P16..4: 36.6% 40.5% 12.2% 0.0% 0.0% skip: 6.2%
---[NoImage] x264 [info]: mb B I16..4: 0.0% 0.2% 0.0% B16..8: 35.7% 16.0% 1.8% direct: 2.2% skip:44.0% L0:46.6% L1:46.8% BI: 6.5%
---[NoImage] x264 [info]: 8x8 transform intra:74.7% inter:63.5%
---[NoImage] x264 [info]: direct mvs spatial:98.7% temporal:1.3%
---[NoImage] x264 [info]: coded y,uvDC,uvAC intra: 84.9% 83.9% 65.6% inter: 13.9% 13.1% 6.0%
---[NoImage] x264 [info]: i16 v,h,dc,p: 26% 9% 9% 56%
---[NoImage] x264 [info]: i8 v,h,dc,ddl,ddr,vr,hd,vl,hu: 10% 7% 4% 10% 15% 15% 14% 13% 12%
---[NoImage] x264 [info]: i4 v,h,dc,ddl,ddr,vr,hd,vl,hu: 12% 8% 6% 10% 15% 14% 13% 11% 11%
---[NoImage] x264 [info]: i8c dc,h,v,p: 41% 20% 18% 21%
---[NoImage] x264 [info]: Weighted P-Frames: Y:1.6% UV:0.7%
---[NoImage] x264 [info]: ref P L0: 45.1% 7.7% 18.6% 6.6% 5.8% 4.1% 3.9% 1.8% 1.8% 1.5% 1.5% 1.4% 0.2% 0.0%
---[NoImage] x264 [info]: ref B L0: 63.0% 14.6% 8.1% 3.9% 2.9% 2.5% 2.0% 1.1% 1.0% 0.6% 0.2%
---[NoImage] x264 [info]: ref B L1: 89.3% 10.7%
---[NoImage] x264 [info]: kb/s:1503.58
---[NoImage] encoded 153027 frames, 11.88 fps, 1503.58 kb/s

Скриншот c названием фильма

Скриншоты

Показать сообщения:    

Текущее время: Сегодня 02:26

Часовой пояс: GMT



Вы не можете начинать темы
Вы не можете отвечать на сообщения
Вы не можете редактировать свои сообщения
Вы не можете удалять свои сообщения
Вы не можете голосовать в опросах
Вы не можете прикреплять файлы к сообщениям
Вы не можете скачивать файлы