Важное объявление!
У Нас Все раздачи мультитрекерные, при нуле пиров в релизах, можете смело вставать на закачку!
 
Автор Сообщение

HUNTER

Стаж:
4 года 4 месяца
Сообщений:
56798

Репутация: 101

[+] [-]
Вне форума [Профиль] [ЛС]

Победить стресс!-

Год выпуска: 2011
Страна: Россия
Сайт производителя: отсутствуeт
Тематика: психология
Тип материала: Видеоуроки-Продолжительность: 00:47:17
Автор: Вадим Шлахтер-Язык: Русский
Субтитры: отсутствуют-Описание: Автор данной программы и ведущий тренинга: Вадим Вадимович Шлахтер – известный бизнес-тренер, а также тренер личностного роста, бизнес-консультант. Один из лучших ведущих психологов-практиков Российской Федерации с профессиональным опытом более 16 лет.
Здесь представлены уроки Вадима Шлахтера по преодолению стресса.
-Качество: DVD5
Формат: DVD Video
Видео кодек: MPEG2
Аудио кодек: AC3
Видео: 720х576 (PAL 4:3), 25 fps, MPEG-2, ~3121 kbps avg, 0.314 bit/pixel
Аудио: 48 kHz, AC-3 , 2 ch, 192.00 kbps avg-

Содержание

1. Стресс
2. Стресс-фактор
3. Психотравма
4. Мужской урок
5. Мужские болезни
6. Секретный урок

MediaInfo

Код: copyText_writeLink('this.parentNode.parentNode.nextSibling.nextSibling'); General
Complete name : E:\Обучение\pobedit_stress\VIDEO_TS\VTS_01_1.VOB
Format : MPEG-PS
File size : 1 024 MiB
Duration : 42mn 20s
Overall bit rate mode : Variable
Overall bit rate : 3 380 Kbps
Video
ID : 224 (0xE0)
Format : MPEG Video
Format version : Version 2
Format profile : Main@Main
Format settings, BVOP : Yes
Format settings, Matrix : Default
Format settings, GOP : M=3, N=12
Duration : 42mn 20s
Bit rate mode : Variable
Bit rate : 3 121 Kbps
Maximum bit rate : 9 008 Kbps
Width : 720 pixels
Height : 576 pixels
Display aspect ratio : 4:3
Frame rate : 24.000 fps
Standard : PAL
Color space : YUV
Chroma subsampling : 4:2:0
Bit depth : 8 bits
Scan type : Progressive
Scan order : 2:2:2:2:2:2:2:2:2:2:2:3 Pulldown
Compression mode : Lossy
Bits/(Pixel*Frame) : 0.314
Stream size : 945 MiB (92%)
Color primaries : BT.601 PAL
Transfer characteristics : BT.470 System B, BT.470 System G
Matrix coefficients : BT.601
Audio
ID : 189 (0xBD)-128 (0x80)
Format : AC-3
Format/Info : Audio Coding 3
Mode extension : CM (complete main)
Format settings, Endianness : Big
Muxing mode : DVD-Video
Duration : 42mn 20s
Bit rate mode : Constant
Bit rate : 192 Kbps
Channel(s) : 2 channels
Channel positions : Front: L R
Sampling rate : 48.0 KHz
Bit depth : 16 bits
Compression mode : Lossy
Stream size : 58.1 MiB (6%)
Menu
- -

_________________
Показать сообщения:    

Текущее время: Сегодня 04:43

Часовой пояс: GMT



Вы не можете начинать темы
Вы не можете отвечать на сообщения
Вы не можете редактировать свои сообщения
Вы не можете удалять свои сообщения
Вы не можете голосовать в опросах
Вы не можете прикреплять файлы к сообщениям
Вы не можете скачивать файлы