Важное объявление!
У Нас Все раздачи мультитрекерные, при нуле пиров в релизах, можете смело вставать на закачку!
 
Автор Сообщение

HUNTER

Стаж:
4 года 4 месяца
Сообщений:
56755

Репутация: 101

[+] [-]
Вне форума [Профиль] [ЛС]

Побег из лагеря МакКензи / The McKenzie Break
Страна: Великобритания, Ирландия
Жанр: военный, драма
Год выпуска: 1970
Продолжительность: 01:42:00
Перевод: Профессиональный (двухголосый закадровый) НТВ+
Cубтитры: нет
Оригинальная аудиодорожка: английский
Режиссер: Лэмонт Джонсон / Lamont Johnson
В ролях: Брайан Кит, Хельмут Грим, Иэн Хендри, Джек Уотсон, Патрик О'Коннелл, Хорст Янсон, Александр Аллерсон, Джон Абинери, Том Кемпински, Константин Грегори
Описание: По роману Сидни Шелли. Заключительный этап Второй мировой войны. В лагере для немецких военнопленных в Северной Англии происходит бунт и британское командование посылает в лагерь ирландского капитана Кейта в надежде на то, что он сможет выяснить, что же на самом деле там происходит. Ирландец сразу вступает в конфликт с главным немецким заключенным, бывшим командиром подводной лодкой. В напряженной игре в кошки-мышки, Кейту удается разгадать замысел заключенных и он позволяет им бежать в надежде захватить немецкую подлодку. Но его план идет наперекосяк...
Доп. информация: Фильм записан с канала MGM HD xfiles, большое спасибо.
Сэмпл: http://sendfile.su/981883
Релиз:

Тип релиза: HDTV 1080i
Контейнер: TS
Видео: AVC, 1920x1080, 25.000 fps, ~6833 kbps
Аудио 1: Russian 48 kHz, MPEG-1 Audio layer 2, 2.0 ch, 192 kbps
Аудио 2: English 48 kHz, MPEG-1 Audio layer 2, 2.0 ch, 192 kbps
MediaInfo
Формат : MPEG-TS
Размер файла : 5,43 Гбайт
Продолжительность : 1 ч. 42 м.
Режим общего битрейта : Переменный
Общий поток : 7597 Кбит/сек
Максимальный общий битрейт : 35,5 Мбит/сек
Видео
Идентификатор : 4113 (0x1011)
Идентификатор меню : 1 (0x1)
Формат : AVC
Формат/Информация : Advanced Video Codec
Профиль формата : High@L4.0
Параметр CABAC формата : Да
Параметр ReFrames формата : 3 кадра
Идентификатор кодека : 27
Продолжительность : 1 ч. 42 м.
Вид битрейта : Переменный
Битрейт : 6833 Кбит/сек
Максимальный битрейт : 40,0 Мбит/сек
Ширина : 1920 пикселей
Высота : 1080 пикселей
Соотношение сторон : 16:9
Частота кадров : 25,000 кадров/сек
Стандарт вещания : Component
Цветовое пространство : YUV
Субдискретизация насыщенности : 4:2:0
Битовая глубина : 8 бит
Тип развёртки : Чересстрочная
Порядок развёртки : Верхнее поле первое
Бит/(Пиксели*Кадры) : 0.132
Размер потока : 4,88 Гбайт (90%)
Основные цвета : BT.709
Характеристики трансфера : BT.709
Коэффициенты матрицы : BT.709
Аудио #1
Идентификатор : 4352 (0x1100)
Идентификатор меню : 1 (0x1)
Формат : MPEG Audio
Версия формата : Version 1
Профиль формата : Layer 2
Идентификатор кодека : 4
Продолжительность : 1 ч. 42 м.
Вид битрейта : Постоянный
Битрейт : 192 Кбит/сек
Каналы : 2 канала
Частота : 48,0 КГц
Метод сжатия : С потерями
Размер потока : 140 Мбайт (3%)
Язык : Russian
Аудио #2
Идентификатор : 4353 (0x1101)
Идентификатор меню : 1 (0x1)
Формат : MPEG Audio
Версия формата : Version 1
Профиль формата : Layer 2
Идентификатор кодека : 4
Продолжительность : 1 ч. 42 м.
Вид битрейта : Постоянный
Битрейт : 192 Кбит/сек
Каналы : 2 канала
Частота : 48,0 КГц
Метод сжатия : С потерями
Размер потока : 140 Мбайт (3%)
Язык : English
Скриншот названия фильмаСкриншотыСравнения

_________________
Показать сообщения:    

Текущее время: Сегодня 13:51

Часовой пояс: GMT



Вы не можете начинать темы
Вы не можете отвечать на сообщения
Вы не можете редактировать свои сообщения
Вы не можете удалять свои сообщения
Вы не можете голосовать в опросах
Вы не можете прикреплять файлы к сообщениям
Вы не можете скачивать файлы