Важное объявление!
У Нас Все раздачи мультитрекерные, при нуле пиров в релизах, можете смело вставать на закачку!
 
Автор Сообщение

HUNTER

Стаж:
4 года 4 месяца
Сообщений:
56790

Репутация: 101

[+] [-]
Вне форума [Профиль] [ЛС]

-Побег из Курятника / Chicken Run-
Английское название: Chicken Run
Русские названия: Побег из Курятника
Год выпуска: 2000
Страна: Великобритания.
Жанр: Комедия, семейный
Продолжительность: 1:24:29
Перевод: Профессиональный (Полное Дублирование) ОРТ
Перевод: Профессиональный (Многоголосный Закадровый) "Премьер Видео Фильм" - DVD
Перевод: Профессиональный (Многоголосный Закадровый) "Премьер Видео Фильм" - VHS
Перевод: Профессиональный (Двухголосный Закадровый) Гланц и Назарова
Перевод: Авторский (Одноголосный) Дмитрий Пучков (Гоблин)
Перевод: Авторский (Одноголосный) Андрей Гаврилов
Перевод: Авторский (Одноголосный) Юрий Живов
Перевод: Авторский (Одноголосный) Владимир Сонькин
Перевод: Одноголосный Закадровый Владимир Яковлев (Борис Фёдоров)
Перевод: Авторский (Одноголосный) Евгений Гранкин
Субтитры: Есть (Русские, Английские)-Описание: Курочкам на ферме миссис Туиди приходится не легко. Для каждой из этих несчастных птиц любое, даже самое погожее утро, может стать последним: в мгновение ока они могут угодить в суп или стать начинкой для пирожка.
Безропотные домашние птички живут в постоянном страхе в ужасных курятниках, напоминающих бараки концлагеря. Все попытки вырваться из страшной фермы на волю оканчиваются провалом. Но однажды на ферме объявился веселый американский петух Рокки
Над релизом работали:
GVR232 .......Предоставил чистые голоса Гаврилова, Живова, Сонькина, Яковлева, Гранкина
ALEKS KV .......Синхронизация и финальный мукс Гаврилова, Живова, Сонькина, Яковлева, Гранкина
Chronomaster, Lorenzo94 .......Дорожки ОРТ и Премьер Видео
lizing48 .......Исходная синхронизация дорожек ОРТ, Премьер Видео, Гоблина, Гланца с Назаровой под Blu-Ray
Сэмпл
Качество: BDRemux
Формат видео: MKV
Видео кодек: MPEG-4 AVC
Аудио кодек: AC3, DTS-HD
Субтитры: Есть (Русские, Английские)
Видео: MPEG-4 AVC 1920х1080p 24.000fps 38.1 Mbps 16:9 High Profile 4.1
Аудио:
  • русская: Dolby AC3 48000Hz stereo 192Kbps [Дубляж ОРТ]
  • русская: Dolby AC3 48000Hz 5.1 448Kbps [Закадровый "Премьер Видео Фильм" - DVD]
  • русская: Dolby AC3 48000Hz stereo 192Kbps [Закадровый "Премьер Видео Фильм" - VHS]
  • русская: DTS-HD 48000Hz 6.1 1509Kbps 16bit [Закадровый Гланц и Назарова]
  • русская: DTS-HD 48000Hz 6.1 1509Kbps 16bit [Авторский - Дмитрий Пучков (Гоблин)]
  • русская: DTS-HD 48000Hz 6.1 1509Kbps 16bit [Авторский - Андрей Гаврилов]
  • русская: DTS-HD 48000Hz 6.1 1509Kbps 16bit [Авторский - Юрий Живов]
  • русская: DTS-HD 48000Hz 6.1 1509Kbps 16bit [Авторский - Владимир Сонькин]
  • русская: DTS-HD 48000Hz 6.1 1509Kbps 16bit [Одноголосный - Владимир Яковлев (Борис Фёдоров)]
  • русская: DTS-HD 48000Hz 6.1 1509Kbps 16bit [Авторский - Евгений Гранкин]
  • английская: DTS-HD 48000Hz 6.1 1509Kbps 16bit [Original]
  • русская: Dolby AC3 48000Hz stereo 192Kbps [Коментарии]

-

Подробные технические данные

GeneralUnique ID : 246678453561636808264527034115488779390 (0xB9948AC2CD6C538EB0F261BB42588C7E)Complete name : X:\XXXXXXXXX\Chiken Run.mkvFormat : MatroskaFormat version : Version 2File size : 22.5 GiBDuration : 1h 24mnOverall bit rate mode : VariableOverall bit rate : 38.1 MbpsMovie name : ~Sahaa~Encoded date : UTC 2013-07-03 17:42:20Writing application : mkvmerge v5.5.0 ('Healer') built on Apr 6 2012 21:43:24Writing library : libebml v1.2.3 + libmatroska v1.3.0
VideoID : 1Format : AVCFormat/Info : Advanced Video CodecFormat profile : High@L4.1Format settings, CABAC : YesFormat settings, ReFrames : 4 framesCodec ID : V_MPEG4/ISO/AVCDuration : 1h 24mnBit rate mode : VariableMaximum bit rate : 38.0 MbpsWidth : 1 920 pixelsHeight : 1 080 pixelsDisplay aspect ratio : 16:9Frame rate mode : ConstantFrame rate : 24.000 fpsColor space : YUVChroma subsampling : 4:2:0Bit depth : 8 bitsScan type : ProgressiveDefault : YesForced : NoColor primaries : BT.709Transfer characteristics : BT.709Matrix coefficients : BT.709
Audio #1ID : 2Format : AC-3Format/Info : Audio Coding 3Mode extension : CM (complete main)Format settings, Endianness : BigCodec ID : A_AC3Duration : 1h 24mnBit rate mode : ConstantBit rate : 192 KbpsChannel(s) : 2 channelsChannel positions : Front: L RSampling rate : 48.0 KHzBit depth : 16 bitsCompression mode : LossyStream size : 116 MiB (1%)Title : ОРТLanguage : RussianDefault : YesForced : No
Audio #2ID : 3Format : AC-3Format/Info : Audio Coding 3Mode extension : CM (complete main)Format settings, Endianness : BigCodec ID : A_AC3Duration : 1h 24mnBit rate mode : ConstantBit rate : 448 KbpsChannel(s) : 6 channelsChannel positions : Front: L C R, Side: L R, LFESampling rate : 48.0 KHzBit depth : 16 bitsCompression mode : LossyStream size : 271 MiB (1%)Title : "Премьер Видео Фильм" - DVDLanguage : RussianDefault : NoForced : No
Audio #3ID : 4Format : AC-3Format/Info : Audio Coding 3Mode extension : CM (complete main)Format settings, Endianness : BigCodec ID : A_AC3Duration : 1h 24mnBit rate mode : ConstantBit rate : 192 KbpsChannel(s) : 2 channelsChannel positions : Front: L RSampling rate : 48.0 KHzBit depth : 16 bitsCompression mode : LossyStream size : 116 MiB (1%)Title : "Премьер Видео Фильм" - VHSLanguage : RussianDefault : NoForced : No
Audio #4ID : 5Format : DTSFormat/Info : Digital Theater SystemsFormat profile : MA / CoreMode : 16Format settings, Endianness : BigCodec ID : A_DTSDuration : 1h 24mnBit rate mode : VariableBit rate : Unknown / 1 509 KbpsChannel(s) : 7 channels / 6 channelsChannel positions : Front: L C R, Side: L R, Back: C, LFE / Front: L C R, Side: L R, LFESampling rate : 48.0 KHzBit depth : 16 bitsCompression mode : Lossless / LossyTitle : Гланц и НазароваLanguage : RussianDefault : NoForced : No
Audio #5ID : 6Format : DTSFormat/Info : Digital Theater SystemsFormat profile : MA / CoreMode : 16Format settings, Endianness : BigCodec ID : A_DTSDuration : 1h 24mnBit rate mode : VariableBit rate : Unknown / 1 509 KbpsChannel(s) : 7 channels / 6 channelsChannel positions : Front: L C R, Side: L R, Back: C, LFE / Front: L C R, Side: L R, LFESampling rate : 48.0 KHzBit depth : 16 bitsCompression mode : Lossless / LossyTitle : Дмитрий Пучков (Гоблин)Language : RussianDefault : NoForced : No
Audio #6ID : 7Format : DTSFormat/Info : Digital Theater SystemsFormat profile : MA / CoreMode : 16Format settings, Endianness : BigCodec ID : A_DTSDuration : 1h 24mnBit rate mode : VariableBit rate : Unknown / 1 509 KbpsChannel(s) : 7 channels / 6 channelsChannel positions : Front: L C R, Side: L R, Back: C, LFE / Front: L C R, Side: L R, LFESampling rate : 48.0 KHzBit depth : 16 bitsCompression mode : Lossless / LossyTitle : Андрей ГавриловLanguage : RussianDefault : NoForced : No
Audio #7ID : 8Format : DTSFormat/Info : Digital Theater SystemsFormat profile : MA / CoreMode : 16Format settings, Endianness : BigCodec ID : A_DTSDuration : 1h 24mnBit rate mode : VariableBit rate : Unknown / 1 509 KbpsChannel(s) : 7 channels / 6 channelsChannel positions : Front: L C R, Side: L R, Back: C, LFE / Front: L C R, Side: L R, LFESampling rate : 48.0 KHzBit depth : 16 bitsCompression mode : Lossless / LossyTitle : Юрий ЖивовLanguage : RussianDefault : NoForced : No
Audio #8ID : 9Format : DTSFormat/Info : Digital Theater SystemsFormat profile : MA / CoreMode : 16Format settings, Endianness : BigCodec ID : A_DTSDuration : 1h 24mnBit rate mode : VariableBit rate : Unknown / 1 509 KbpsChannel(s) : 7 channels / 6 channelsChannel positions : Front: L C R, Side: L R, Back: C, LFE / Front: L C R, Side: L R, LFESampling rate : 48.0 KHzBit depth : 16 bitsCompression mode : Lossless / LossyTitle : Владимир СонькинLanguage : RussianDefault : NoForced : No
Audio #9ID : 10Format : DTSFormat/Info : Digital Theater SystemsFormat profile : MA / CoreMode : 16Format settings, Endianness : BigCodec ID : A_DTSDuration : 1h 24mnBit rate mode : VariableBit rate : Unknown / 1 509 KbpsChannel(s) : 7 channels / 6 channelsChannel positions : Front: L C R, Side: L R, Back: C, LFE / Front: L C R, Side: L R, LFESampling rate : 48.0 KHzBit depth : 16 bitsCompression mode : Lossless / LossyTitle : Яковлев (Фёдоров)Language : RussianDefault : NoForced : No
Audio #10ID : 11Format : DTSFormat/Info : Digital Theater SystemsFormat profile : MA / CoreMode : 16Format settings, Endianness : BigCodec ID : A_DTSDuration : 1h 24mnBit rate mode : VariableBit rate : Unknown / 1 509 KbpsChannel(s) : 7 channels / 6 channelsChannel positions : Front: L C R, Side: L R, Back: C, LFE / Front: L C R, Side: L R, LFESampling rate : 48.0 KHzBit depth : 16 bitsCompression mode : Lossless / LossyTitle : Евгений ГранкинLanguage : RussianDefault : NoForced : No
Audio #11ID : 12Format : DTSFormat/Info : Digital Theater SystemsFormat profile : MA / CoreMode : 16Format settings, Endianness : BigCodec ID : A_DTSDuration : 1h 24mnBit rate mode : VariableBit rate : Unknown / 1 509 KbpsChannel(s) : 7 channels / 6 channelsChannel positions : Front: L C R, Side: L R, Back: C, LFE / Front: L C R, Side: L R, LFESampling rate : 48.0 KHzBit depth : 16 bitsCompression mode : Lossless / LossyTitle : OriginalLanguage : EnglishDefault : NoForced : No
Audio #12ID : 13Format : AC-3Format/Info : Audio Coding 3Mode extension : CM (complete main)Format settings, Endianness : BigCodec ID : A_AC3Duration : 1h 24mnBit rate mode : ConstantBit rate : 192 KbpsChannel(s) : 2 channelsChannel positions : Front: L RSampling rate : 48.0 KHzBit depth : 16 bitsCompression mode : LossyStream size : 116 MiB (1%)Title : КоментарииLanguage : RussianDefault : NoForced : No
Text #1ID : 14Format : PGSMuxing mode : zlibCodec ID : S_HDMV/PGSCodec ID/Info : The same subtitle format used on BDs/HD-DVDsTitle : РусскиеLanguage : RussianDefault : NoForced : No
Text #2ID : 15Format : PGSMuxing mode : zlibCodec ID : S_HDMV/PGSCodec ID/Info : The same subtitle format used on BDs/HD-DVDsTitle : OriginalLanguage : EnglishDefault : NoForced : No

Скриншоты


_________________
Показать сообщения:    

Текущее время: Сегодня 17:44

Часовой пояс: GMT



Вы не можете начинать темы
Вы не можете отвечать на сообщения
Вы не можете редактировать свои сообщения
Вы не можете удалять свои сообщения
Вы не можете голосовать в опросах
Вы не можете прикреплять файлы к сообщениям
Вы не можете скачивать файлы