Важное объявление!
У Нас Все раздачи мультитрекерные, при нуле пиров в релизах, можете смело вставать на закачку!
 
Автор Сообщение

HUNTER

Стаж:
4 года 4 месяца
Сообщений:
56722

Репутация: 101

[+] [-]
Вне форума [Профиль] [ЛС]

Побег 2-
Год выпуска: 2012
Страна: Россия, Студия «Русский проект»
Жанр: Боевик, триллер, криминал
Продолжительность: ~00:45:00
Перевод: Оригинал
Субтитры: нет-Режиссёр: Вячеслав Никифоров, Зиновий Ройзман-В ролях: Юрий Чурсин, Владимир Епифанцев, Екатерина Климова, Дания Агишева, Ольга Павловец, Олег Масленников (II), Анастасия Макеева, Антон Эльдаров, Антон Сёмкин, Евгений Мундум, Тимофей Трибунцев, Нодар Сирадзе, Виталий Кищенко, Владимир Юматов, Максим Зыков, Дмитрий Волкострелов, Андрей Феськов, Марина Блейк, Сергей Романович, Дарья Хорошилова-Описание: Андрею Чернову удалось организовать дерзкий побег группы заключенных из тюрьмы особого режима №23 и освободить Кирила Панина. Но даже продуманный до мельчайших деталей замысел может дать сбой. Кто-то получит смертельное ранение, кто-то не выдержит жесткого преследования. А когда свобода будет уже совсем близка, окажется, что пилот вертолета решил поднять машину в воздух, не дождавшись беглецов. Теперь Алексей должен в кратчайшие сроки разработать новый план, как избежать смертельного заключения.-Качество: SATRip-AVC
Формат: MKV
Видео кодек: H.264
Аудио кодек: AC3
Видео: x264 688х384 pix 16:9 25 fps 1319 Kbps 0.200 bit/pix
Аудио: 48 kHz, AC3 Dolby Digital, 2/0 (L,R) ch, ~192.00 kbps avg
-

Скриншоты

-

Дополнительная информация:

Группа
Релиз: & Ц Дрек писал(а): Это моя авторская запись с телеканала Первый: Всемирная сеть.
-

MI

Код: copyText_writeLink('this.parentNode.parentNode.nextSibling.nextSibling'); General
Unique ID : 186764616354225783579457597385791306572 (0x8C818E85208FB1A88BDE9F22B1C8FB4C)
Complete name : D:\Видео\Сериалы\Российские\Побег_SatRip_AVC_by_Drek\Побег_01_SatRip_AVC_by_Drek.mkv
Format : Matroska
Format version : Version 2
File size : 554 MiB
Duration : 51mn 10s
Overall bit rate : 1 512 Kbps
Encoded date : UTC 2012-05-17 19:38:26
Writing application : mkvmerge v5.0.1 ('Es ist Sommer') built on Oct 24 2011 19:45:06
Writing library : libebml v1.2.2 + libmatroska v1.3.0
Video #1
ID : 1
Format : AVC
Format/Info : Advanced Video Codec
Format profile : [url=mailto:High@L3.1]High@L3.1[/url]
Format settings, CABAC : Yes
Format settings, ReFrames : 10 frames
Codec ID : V_MPEG4/ISO/AVC
Duration : 51mn 10s
Bit rate : 1 319 Kbps
Width : 688 pixels
Height : 384 pixels
Display aspect ratio : 16:9
Frame rate : 25.000 fps
Color space : YUV
Chroma subsampling : 4:2:0
Bit depth : 8 bits
Scan type : Progressive
Bits/(Pixel*Frame) : 0.200
Stream size : 472 MiB (85%)
Writing library : x264 core 119 r2106 07efeb4
Encoding settings : cabac=1 / ref=10 / deblock=1:-1:-1 / analyse=0x3:0x113 / me=umh / subme=9 / psy=1 / psy_rd=1.00:0.15 / mixed_ref=1 / me_range=24 / chroma_me=1 / trellis=1 / 8x8dct=1 / cqm=0 / deadzone=21,11 / fast_pskip=0 / chroma_qp_offset=-3 / threads=3 / sliced_threads=0 / nr=0 / decimate=0 / interlaced=0 / bluray_compat=0 / constrained_intra=0 / bframes=8 / b_pyramid=2 / b_adapt=2 / b_bias=0 / direct=3 / weightb=1 / open_gop=0 / weightp=2 / keyint=250 / keyint_min=25 / scenecut=40 / intra_refresh=0 / rc=2pass / mbtree=0 / bitrate=1319 / ratetol=1.0 / qcomp=0.60 / qpmin=0 / qpmax=69 / qpstep=4 / cplxblur=20.0 / qblur=0.5 / ip_ratio=1.40 / pb_ratio=1.30 / aq=2:0.80
Default : Yes
Forced : No
Color primaries : BT.470-6 System B, BT.470-6 System G, BT.601-6 625, BT.1358 625, BT.1700 625 PAL, BT.1700 625 SECAM
Transfer characteristics : BT.470-6 System B, BT.470-6 System G
Matrix coefficients : BT.470-6 System B, BT.470-6 System G, BT.601-6 625, BT.1358 625, BT.1700 625 PAL, BT.1700 625 SECAM, IEC 61966-2-4 601
Audio #2
ID : 2
Format : AC-3
Format/Info : Audio Coding 3
Mode extension : CM (complete main)
Format settings, Endianness : Big
Codec ID : A_AC3
Duration : 51mn 10s
Bit rate mode : Constant
Bit rate : 192 Kbps
Channel(s) : 2 channels
Channel positions : Front: L R
Sampling rate : 48.0 KHz
Bit depth : 16 bits
Compression mode : Lossy
Stream size : 70.3 MiB (13%)
Default : Yes
Forced : No
-Сэмпл-Торрент обновлен 11.06.2012. Добавлены 12-16 серии. Полный сезон.

_________________
Показать сообщения:    

Текущее время: Сегодня 09:47

Часовой пояс: GMT



Вы не можете начинать темы
Вы не можете отвечать на сообщения
Вы не можете редактировать свои сообщения
Вы не можете удалять свои сообщения
Вы не можете голосовать в опросах
Вы не можете прикреплять файлы к сообщениям
Вы не можете скачивать файлы