Важное объявление!
У Нас Все раздачи мультитрекерные, при нуле пиров в релизах, можете смело вставать на закачку!
 
Автор Сообщение

HUNTER

Стаж:
4 года 4 месяца
Сообщений:
56719

Репутация: 101

[+] [-]
Вне форума [Профиль] [ЛС]

По следам космических призраков
Год выпуска: 2012
Страна: Россия
Жанр: Документальный
Продолжительность: 00:26:00
Перевод: Не требуется
Русские субтитры: нет
Режиссер: Майя Данилевская
Описание: Декабрь 1930 года. Австрийский физик Вольфганг Паули обнаружил, что огромная часть энергии, выходящей из Солнца, куда-то исчезает. Но по закону сохранения энергии такого просто не может быть. Значит, существует пока неизвестная науке элементарная частица, которая и уносит энергию.
Имя таинственной частице-фантому дал спустя два года итальянец Энрико Ферми. "Нейтрино". Нейтрончик по-итальянски. То есть – очень маленькая нейтральная частица. Так началась история поисков нейтрино – самого загадочного жителя Вселенной. Частицы-призрака…

качество: SATRip
формат: AVI
Видео: Xvid 720x576 30fps 2028kbps
Аудио: MP3 48000Hz stereo 256kbps

MediaInfo

VideoID : 0Format : xvidCodec ID : xvidDuration : 25mn 59sBit rate : 2 028 KbpsWidth : 720 pixelsHeight : 576 pixelsDisplay aspect ratio : 5:4Frame rate : 30.000 fpsStandard : PALBits/(Pixel*Frame) : 0.163Stream size : 377 MiB (88%)
AudioID : 1Format : MPEG AudioFormat version : Version 1Format profile : Layer 3Mode : Joint stereoMode extension : MS StereoCodec ID : 55Codec ID/Hint : MP3Duration : 25mn 59sBit rate mode : ConstantBit rate : 256 KbpsChannel(s) : 2 channelsSampling rate : 48.0 KHzCompression mode : LossyStream size : 47.6 MiB (11%)Alignment : Aligned on interleavesInterleave, duration : 24 ms (0.72 video frame)Writing library : LAME3.99.5

_________________
Показать сообщения:    

Текущее время: Сегодня 23:45

Часовой пояс: GMT



Вы не можете начинать темы
Вы не можете отвечать на сообщения
Вы не можете редактировать свои сообщения
Вы не можете удалять свои сообщения
Вы не можете голосовать в опросах
Вы не можете прикреплять файлы к сообщениям
Вы не можете скачивать файлы