Важное объявление!
У Нас Все раздачи мультитрекерные, при нуле пиров в релизах, можете смело вставать на закачку!
 
Автор Сообщение

HUNTER

Стаж:
4 года 4 месяца
Сообщений:
56798

Репутация: 101

[+] [-]
Вне форума [Профиль] [ЛС]

По секрету всему свету- -Страна: Россия
Жанр: мелодрама
Год выпуска: 2015
Производство: «Кинокомпания "Русское", ЗАО "Студия Олимп"»
Продолжительность: 01:31:20
Оригинальная аудиодорожка: русский
Cубтитры: нет-Режиссер: Роман Просвирнин-В ролях:
Глафира Тарханова, Руслан Ягудин, Иван Жидков, Андрей Лейвин, Юрий Лейвин, Анастасия Попова,
Виктор Рябов, Галина Стаханова, Мария Сокова, Анна Асташкина, Роман Евдокимов-Описание:
Нюта — настоящая русская женщина. Она работает продавцом в сельском магазине, ведет домашнее хозяйство и воспитывает детей. Муж Семен и брат Санёк благополучно уселись безотказной Нюте на шею, и помощи от них ждать не приходится. Однажды в жизнь героини приходит настоящая беда: после Нютиной смены магазин грабят. Недолго думая, хозяева вешают непомерный долг на Нюту, а муж, испугавшись трудностей, сбегает из дома.. Хватит ли у Нюты сил справиться с горем и найти выход? Может быть, руку помощи неожиданно протянет тот, кто еще вчера казался совсем чужим?..-Возраст: 12+-Качество: HDTV (1080i)
Формат: TS
Видео кодек: AVC
Аудио кодек: MPEG Audio

Видео: AVC, 1920 х 1080 (16:9), 25,000 кадр/сек, 7 928 Кбит/сек, 0.153 bit/pixel
Аудио: MPEG Audio 2, 48000 Hz, 256 Kbps, 2 канала
-

MediaInfo

General
ID : 1 (0x1)
Complete name : D:\Раздачи\По секрету всему свету HDTV (1080i)\По секрету всему свету HDTV (1080i).ts
Format : MPEG-TS
File size : 5.50 GiB
Duration : 1h 31mn
Overall bit rate mode : Variable
Overall bit rate : 8 612 Kbps
Video
ID : 1000 (0x3E8)
Menu ID : 5 (0x5)
Format : AVC
Format/Info : Advanced Video Codec
Format profile : High@L4
Format settings, CABAC : Yes
Format settings, ReFrames : 4 frames
Codec ID : 27
Duration : 1h 31mn
Bit rate : 7 928 Kbps
Width : 1 920 pixels
Height : 1 080 pixels
Display aspect ratio : 16:9
Frame rate : 25.000 fps
Color space : YUV
Chroma subsampling : 4:2:0
Bit depth : 8 bits
Scan type : MBAFF
Scan type, store method : Interleaved fields
Scan order : Top Field First
Bits/(Pixel*Frame) : 0.153
Stream size : 5.06 GiB (92%)
Audio
ID : 1101 (0x44D)
Menu ID : 5 (0x5)
Format : MPEG Audio
Format version : Version 1
Format profile : Layer 2
Codec ID : 3
Duration : 1h 31mn
Bit rate mode : Constant
Bit rate : 256 Kbps
Channel(s) : 2 channels
Sampling rate : 48.0 KHz
Compression mode : Lossy
Delay relative to video : -40ms
Stream size : 167 MiB (3%)
Language : English

Скриншоты


-Раздаю до первых 5-ти скачавших, на раздачи не возвращаюсь...-

_________________
Показать сообщения:    

Текущее время: Сегодня 04:43

Часовой пояс: GMT



Вы не можете начинать темы
Вы не можете отвечать на сообщения
Вы не можете редактировать свои сообщения
Вы не можете удалять свои сообщения
Вы не можете голосовать в опросах
Вы не можете прикреплять файлы к сообщениям
Вы не можете скачивать файлы