Важное объявление!
У Нас Все раздачи мультитрекерные, при нуле пиров в релизах, можете смело вставать на закачку!
 
Автор Сообщение

HUNTER

Стаж:
4 года 4 месяца
Сообщений:
56790

Репутация: 101

[+] [-]
Вне форума [Профиль] [ЛС]

По ком звонит колокол / For Whom the Bell Tolls-
Год выпуска: 1943
Страна: США
Жанр: драма, мелодрама, исторический
Продолжительность: 02:45:30
Перевод 1: Профессиональный (многоголосый закадровый) Film Prestige
Перевод 2: Профессиональный (двухголосый закадровый) НТВ+ (Елена Борзунова, Михаил Тихонов)
Перевод 3: Профессиональный (двухголосый закадровый) New Dream Media (Видеобаза)
Оригинальная аудиодорожка: Английская
Cубтитры: Русские (R5), английские-Режиссер: Сэм Вуд / Sam Wood
В ролях: Ингрид Бергман, Гэри Купер, Аким Тамиров, Михаил Разумный, Фортунио Бонанова, Эрик Фелдари, Виктор Варкони, Катина Паксину, Джозеф Каллея, Александр Гранах, Адия Кузнецофф, Леонид Снегов, Фрэнк Палья, Педро Де Кордоба, Майкл Висарофф, Артуро де Кордова, Мартин Гарралага, Жан Дель Вал, Джон Майлонг, Фёдор Шаляпин мл., Лев Булгаков, Дункан Ренальдо, Владимир Соколов-Описание:
Одна из самых значительных лент в истории кинематографа, экранизация знаменитого романа Эрнеста Хемингуэя о гражданской войне в Испании.
Американец Роберт Джордан - интербригадовец, получивший задание взорвать мост в тылу франкистов. В небольшой группе сопротивления, где командуют Пабло и его жена Пилар, он встречает испанскую девушку Марию и между ними возникает высокое чувство любви, происходящей на фоне ужасов кровопролитной войны и гибели соратников. Эта любовь не может иметь счастливого финала, но очень хочется в это верить...-За перевод НТВ+ спасибо smit009, за New Dream Media – Oleg39
| IMDb | Сэмпл-Качество: BDRemux 1080p (For Whom the Bell Tolls 1943 1080p GER Blu-ray AVC DTS-HD MA 2.0-SbR)
Контейнер: MKV
Видео: AVC, 1920x1080 (1.36:1), 23.976 fps, 19999 kbps
Аудио 1: Русский AC3 2.0, 48 kHz, 192 kbps — Film Prestige
Аудио 2: Русский AC3 2.0, 48 kHz, 192 kbps — НТВ+
Аудио 3: Русский AC3 2.0, 48 kHz, 192 kbps — New Dream Media
Аудио 4: Английский DTS-HD MA 2.0, 48 kHz, 1084 kbps, 16-bit (DTS Core: 2.0, 48 kHz, 768 kbps, 16-bit)
Формат субтитров: softsub (SRT)

MI

General
Unique ID : 184766605818435171361405200384442611411 (0x8B00C0FEBA8D0328A1173E883571B6D3)
Complete name : For.Whom.the.Bell.Tolls.1943.1080p.BDRemux.mkv
Format : Matroska
Format version : Version 2
File size : 25.0 GiB
Duration : 2h 45mn
Overall bit rate mode : Variable
Overall bit rate : 21.7 Mbps
Movie name : For Whom the Bell Tolls / По ком звонит колокол (1943) – RuTracker
Encoded date : UTC 2015-12-27 20:51:56
Writing application : mkvmerge v8.3.0 ('Over the Horizon') 64bit
Writing library : libebml v1.3.1 + libmatroska v1.4.2
Attachements : cover.jpg
Video
ID : 1
Format : AVC
Format/Info : Advanced Video Codec
Format profile : High@L4.1
Format settings, CABAC : Yes
Format settings, ReFrames : 4 frames
Format settings, GOP : M=3, N=24
Codec ID : V_MPEG4/ISO/AVC
Duration : 2h 45mn
Bit rate mode : Variable
Maximum bit rate : 35.0 Mbps
Width : 1 920 pixels
Height : 1 080 pixels
Display aspect ratio : 16:9
Frame rate mode : Constant
Frame rate : 23.976 fps
Standard : NTSC
Color space : YUV
Chroma subsampling : 4:2:0
Bit depth : 8 bits
Scan type : Progressive
Title : For Whom the Bell Tolls 1943 1080p GER Blu-ray AVC DTS-HD MA 2.0-SbR
Language : English
Default : Yes
Forced : No
Color range : Limited
Color primaries : BT.709
Transfer characteristics : BT.709
Matrix coefficients : BT.709
Audio #1
ID : 2
Format : AC-3
Format/Info : Audio Coding 3
Mode extension : CM (complete main)
Format settings, Endianness : Big
Codec ID : A_AC3
Duration : 2h 45mn
Bit rate mode : Constant
Bit rate : 192 Kbps
Channel(s) : 2 channels
Channel positions : Front: L R
Sampling rate : 48.0 KHz
Compression mode : Lossy
Stream size : 227 MiB (1%)
Title : MVO – Film Prestige
Language : Russian
Default : Yes
Forced : No
Audio #2
ID : 3
Format : AC-3
Format/Info : Audio Coding 3
Mode extension : CM (complete main)
Format settings, Endianness : Big
Codec ID : A_AC3
Duration : 2h 45mn
Bit rate mode : Constant
Bit rate : 192 Kbps
Channel(s) : 2 channels
Channel positions : Front: L R
Sampling rate : 48.0 KHz
Compression mode : Lossy
Stream size : 227 MiB (1%)
Title : DVO – НТВ+ (Елена Борзунова, Михаил Тихонов)
Language : Russian
Default : No
Forced : No
Audio #3
ID : 4
Format : AC-3
Format/Info : Audio Coding 3
Mode extension : CM (complete main)
Format settings, Endianness : Big
Codec ID : A_AC3
Duration : 2h 45mn
Bit rate mode : Constant
Bit rate : 192 Kbps
Channel(s) : 2 channels
Channel positions : Front: L R
Sampling rate : 48.0 KHz
Compression mode : Lossy
Stream size : 227 MiB (1%)
Title : DVO – New Dream Media
Language : Russian
Default : No
Forced : No
Audio #4
ID : 5
Format : DTS
Format/Info : Digital Theater Systems
Format profile : MA / Core
Mode : 16
Format settings, Endianness : Big
Codec ID : A_DTS
Duration : 2h 45mn
Bit rate mode : Variable
Bit rate : Unknown / 768 Kbps
Channel(s) : 2 channels
Channel positions : Front: L R
Sampling rate : 48.0 KHz
Bit depth : 16 bits
Compression mode : Lossless / Lossy
Title : Original
Language : English
Default : No
Forced : No
Text #1
ID : 6
Format : UTF-8
Codec ID : S_TEXT/UTF8
Codec ID/Info : UTF-8 Plain Text
Title : Film Prestige
Language : Russian
Default : No
Forced : No
Text #2
ID : 7
Format : UTF-8
Codec ID : S_TEXT/UTF8
Codec ID/Info : UTF-8 Plain Text
Language : English
Default : No
Forced : No
Menu
00:00:00.000 : en:Chapter 01
00:04:12.252 : en:Chapter 02
00:25:10.259 : en:Chapter 03
00:37:16.276 : en:Chapter 04
00:49:20.875 : en:Chapter 05
01:04:07.510 : en:Chapter 06
01:25:34.921 : en:Chapter 07
01:35:05.700 : en:Chapter 08
01:51:08.704 : en:Chapter 09
02:05:07.458 : en:Chapter 10
02:18:28.133 : en:Chapter 11
02:31:25.952 : en:Chapter 12

_________________
Показать сообщения:    

Текущее время: Сегодня 19:54

Часовой пояс: GMT



Вы не можете начинать темы
Вы не можете отвечать на сообщения
Вы не можете редактировать свои сообщения
Вы не можете удалять свои сообщения
Вы не можете голосовать в опросах
Вы не можете прикреплять файлы к сообщениям
Вы не можете скачивать файлы