Важное объявление!
У Нас Все раздачи мультитрекерные, при нуле пиров в релизах, можете смело вставать на закачку!
 
Автор Сообщение

HUNTER

Стаж:
4 года 4 месяца
Сообщений:
56848

Репутация: 101

[+] [-]
Вне форума [Профиль] [ЛС]

По ком звонит колокол / For Whom the Bell Tolls
Страна: США
Жанр: драма, мелодрама, исторический
Год выпуска: 1943
Продолжительность: 02:45:30-Перевод 1: Профессиональный (многоголосый закадровый) Film Prestige
Перевод 2: Профессиональный (двухголосый закадровый) НТВ+ (Елена Борзунова, Михаил Тихонов)
Перевод 3: Профессиональный (двухголосый закадровый) New Dream Media (Видеобаза)
Cубтитры: русские, английские
Оригинальная аудиодорожка: английский-Режиссер: Сэм Вуд / Sam Wood-В ролях: Ингрид Бергман, Гэри Купер, Аким Тамиров, Михаил Разумный, Фортунио Бонанова, Эрик Фелдари, Виктор Варкони, Катина Паксину, Джозеф Каллея, Александр Гранах, Адия Кузнецофф, Леонид Снегов, Фрэнк Палья, Педро Де Кордоба, Майкл Висарофф, Артуро де Кордова, Мартин Гарралага, Жан Дель Вал, Джон Майлонг, Фёдор Шаляпин мл., Лев Булгаков, Дункан Ренальдо, Владимир Соколов-Описание: Одна из самых значительных лент в истории кинематографа, экранизация знаменитого романа Эрнеста Хемингуэя о гражданской войне в Испании. Американец Роберт Джордан - интербригадовец, получивший задание взорвать мост в тылу франкистов. В небольшой группе сопротивления, где командуют Пабло и его жена Пилар, он встречает испанскую девушку Марию и между ними возникает высокое чувство любви, происходящей на фоне ужасов кровопролитной войны и гибели соратников. Эта любовь не может иметь счастливого финала, но очень хочется в это верить...-Доп. информация: аудио дорожки взяты из этого релиза http://rutracker.org/forum/viewtopic.php?t=5142008-Сэмпл: Скачать-Тип релиза: BDRip 720p (For Whom the Bell Tolls 1943 1080p GER Blu-ray AVC DTS-HD MA 2.0-SbR)
Контейнер: MKV-Видео: 976x720 (4:3); 6 500 Kbps; 23.976 fps; 0.386 bpp
Аудио 1: Russian; AC3; 48.0 KHz; 2ch; 192 Kbps MVO Film Prestige
Аудио 2: Russian; AC3; 48.0 KHz; 2ch; 192 Kbps DVO НТВ+
Аудио 3: Russian; AC3; 48.0 KHz; 2ch; 192 Kbps DVO New Dream Media (Видеобаза)
Аудио 4: English; FLAC; 48.0 KHz; 2ch; 425 Kbps
Формат субтитров: softsub (SRT)

x264

frame I:1554 Avg QP:14.90 size:127477
frame P:43242 Avg QP:17.31 size: 64248
frame B:193291 Avg QP:18.17 size: 26344

MediaInfo

Format : Matroska
Format version : Version 4 / Version 2
File size : 8.68 GiB
Duration : 2h 45mn
Overall bit rate mode : Variable
Overall bit rate : 7 506 Kbps
Encoded date : UTC 2016-01-05 05:46:55
Writing application : mkvmerge v8.3.0 ('Over the Horizon') 64bit
Writing library : libebml v1.3.1 + libmatroska v1.4.2
Attachements : poster.jpg
DURATION : 02:45:30.144000000
NUMBER_OF_FRAMES : 310317
NUMBER_OF_BYTES : 238323456
_STATISTICS_WRITING_APP : mkvmerge v8.3.0 ('Over the Horizon') 64bit
_STATISTICS_WRITING_DATE_UT : 2016-01-05 05:46:55
_STATISTICS_TAGS : BPS DURATION NUMBER_OF_FRAMES NUMBER_OF_BYTES
Video
ID : 1
Format : AVC
Format/Info : Advanced Video Codec
Format profile : High@L4.1
Format settings, CABAC : Yes
Format settings, ReFrames : 9 frames
Codec ID : V_MPEG4/ISO/AVC
Duration : 2h 45mn
Nominal bit rate : 6 500 Kbps
Width : 976 pixels
Height : 720 pixels
Display aspect ratio : 4:3
Frame rate mode : Constant
Frame rate : 23.976 fps
Color space : YUV
Chroma subsampling : 4:2:0
Bit depth : 8 bits
Scan type : Progressive
Bits/(Pixel*Frame) : 0.386
Writing library : x264 core 146 r2538 121396c
Encoding settings : cabac=1 / ref=9 / deblock=1:-3:-3 / analyse=0x3:0x133 / me=umh / subme=11 / psy=1 / psy_rd=1.00:0.50 / mixed_ref=1 / me_range=32 / chroma_me=1 / trellis=2 / 8x8dct=1 / cqm=0 / deadzone=21,11 / fast_pskip=0 / chroma_qp_offset=-4 / threads=12 / lookahead_threads=3 / sliced_threads=0 / nr=0 / decimate=0 / interlaced=0 / bluray_compat=0 / constrained_intra=0 / bframes=16 / b_pyramid=2 / b_adapt=2 / b_bias=0 / direct=3 / weightb=1 / open_gop=0 / weightp=2 / keyint=240 / keyint_min=23 / scenecut=40 / intra_refresh=0 / rc_lookahead=60 / rc=2pass / mbtree=0 / bitrate=6500 / ratetol=1.0 / qcomp=0.65 / qpmin=0 / qpmax=69 / qpstep=4 / cplxblur=20.0 / qblur=0.5 / vbv_maxrate=62500 / vbv_bufsize=78125 / nal_hrd=none / filler=0 / ip_ratio=1.40 / pb_ratio=1.30 / aq=1:1.00
Default : Yes
Forced : No
Audio #1
ID : 2
Format : AC-3
Format/Info : Audio Coding 3
Mode extension : CM (complete main)
Format settings, Endianness : Big
Codec ID : A_AC3
Duration : 2h 45mn
Bit rate mode : Constant
Bit rate : 192 Kbps
Channel(s) : 2 channels
Channel positions : Front: L R
Sampling rate : 48.0 KHz
Compression mode : Lossy
Stream size : 227 MiB (3%)
Title : MVO Film Prestige
Language : Russian
Default : No
Forced : No
Audio #2
ID : 3
Format : AC-3
Format/Info : Audio Coding 3
Mode extension : CM (complete main)
Format settings, Endianness : Big
Codec ID : A_AC3
Duration : 2h 45mn
Bit rate mode : Constant
Bit rate : 192 Kbps
Channel(s) : 2 channels
Channel positions : Front: L R
Sampling rate : 48.0 KHz
Compression mode : Lossy
Stream size : 227 MiB (3%)
Title : DVO НТВ+
Language : Russian
Default : Yes
Forced : No
Audio #3
ID : 4
Format : AC-3
Format/Info : Audio Coding 3
Mode extension : CM (complete main)
Format settings, Endianness : Big
Codec ID : A_AC3
Duration : 2h 45mn
Bit rate mode : Constant
Bit rate : 192 Kbps
Channel(s) : 2 channels
Channel positions : Front: L R
Sampling rate : 48.0 KHz
Compression mode : Lossy
Stream size : 227 MiB (3%)
Title : DVO New Dream Media
Language : Russian
Default : No
Forced : No
Audio #4
ID : 5
Format : FLAC
Format/Info : Free Lossless Audio Codec
Codec ID : A_FLAC
Duration : 2h 45mn
Bit rate mode : Variable
Channel(s) : 2 channels
Sampling rate : 48.0 KHz
Bit depth : 16 bits
Writing library : libFLAC 1.3.1 (UTC 2014-11-25)
Language : English
Default : No
Forced : No
Text #1
ID : 6
Format : UTF-8
Codec ID : S_TEXT/UTF8
Codec ID/Info : UTF-8 Plain Text
Language : English
Default : No
Forced : No
Text #2
ID : 7
Format : UTF-8
Codec ID : S_TEXT/UTF8
Codec ID/Info : UTF-8 Plain Text
Language : Russian
Default : No
Forced : No

Скриншоты


_________________
Показать сообщения:    

Текущее время: Сегодня 06:00

Часовой пояс: GMT



Вы не можете начинать темы
Вы не можете отвечать на сообщения
Вы не можете редактировать свои сообщения
Вы не можете удалять свои сообщения
Вы не можете голосовать в опросах
Вы не можете прикреплять файлы к сообщениям
Вы не можете скачивать файлы
Наши партнеры: интернет магазин Ивановского трикотажа textilla.ru