Важное объявление!
У Нас Все раздачи мультитрекерные, при нуле пиров в релизах, можете смело вставать на закачку!
 
Автор Сообщение

димитри37

Стаж:
3 года 8 месяцев
Сообщений:
1237

Репутация: 127

[+] [-]
Вне форума [Профиль] [ЛС]


По законам военного времени
Год выпуска: 1958.
Страна: СССР .
Киностудия: Ленфильм.
Жанр: Военный.
Продолжительность: 01:15:09.
Режиссер: Игорь Слабневич.
Авторы сценария: Николай Щербинский-Арсеньев, Игорь Слабневич, Евгений Винокуров.
Оператор: Алексей Темерин.
Композитор: Валерий Зубков.
Художник: Василий Голиков.
В ролях:
Ольга Агеева, Борис Сморчков, Игорь Ясулович, Владимир Широков, Алексей Ясулович, Раиса Рязанова, Николай Маковский, Татьяна Кочемасова, Майя Булгакова, Наталья Фатеева.
Описание: Первые месяцы Великой Отечественной войны. Воинский эшелон в небольшом городке готовился к отправке на фронт. Четверо солдат, получив увольнительную в город, отстали от поезда, что по законам военного времени считалось дезертирством. Добравшись до железнодорожного моста, новобранцы увидели группу немецких диверсантов и вступили в неравную схватку с вражеским десантом. Ценой собственной жизни герои спасли мост и предотвратили гибель эшелона...
Доп. информация: Премьера: 3 мая 1983 года.

Качество: TVRip
Формат: AVI
Видео: 688x320 (2.15:1), 25 fps, XviD build 50 ~1263 kbps avg, 0.23 bit/pixel
Аудио: 48 kHz, MPEG Layer 3, 2 ch, ~112.00 kbps avg

Отчет MediaInfo

Общее
Полное имя : Po.zakonam.voennogo.vremeni.1982.XviD.TVRip.by.HeDgEhOt.avi
Формат : AVI
Формат/Информация : Audio Video Interleave
Размер файла : 745 Мбайт
Продолжительность : 1 ч. 15 м.
Общий поток : 1385 Кбит/сек
Название фильма : По законам военного времени (1983)
Правообладатель : HeDgEhOt®
Видео
Идентификатор : 0
Формат : MPEG-4 Visual
Профиль формата : Advanced Simple@L5
Параметр BVOP формата : 1
Параметр QPel формата : Нет
Параметр GMC формата : Без точки перехода
Параметр матрицы формата : Default (MPEG)
Идентификатор кодека : XVID
Идентификатор кодека/Подсказка : XviD
Продолжительность : 1 ч. 15 м.
Битрейт : 1263 Кбит/сек
Ширина : 688 пикселей
Высота : 320 пикселей
Соотношение сторон : 2,2:1
Частота кадров : 25,000 кадров/сек
Цветовое пространство : YUV
Субдискретизация насыщенности : 4:2:0
Битовая глубина : 8 бит
Тип развёртки : Прогрессивная
Метод сжатия : С потерями
Бит/(Пиксели*Кадры) : 0.230
Размер потока : 679 Мбайт (91%)
Библиотека кодирования : XviD 1.2.1 (UTC 2008-12-04)
Аудио
Идентификатор : 1
Формат : MPEG Audio
Версия формата : Version 1
Профиль формата : Layer 3
Режим : Joint stereo
Расширение режима : MS Stereo
Идентификатор кодека : 55
Идентификатор кодека/Подсказка : MP3
Продолжительность : 1 ч. 15 м.
Вид битрейта : Постоянный
Битрейт : 112 Кбит/сек
Каналы : 2 канала
Частота : 48,0 КГц
Метод сжатия : С потерями
Размер потока : 60,2 Мбайт (8%)
Выравнивание : Разделение по промежуткам
Продолжительность промежутка : 40 мс. (1,00 видеокадр)
Время предзагрузки промежутка : 500 мс.
Язык : Russian

Скриншоты


Альтернативный хост


Показать сообщения:    

Текущее время: Сегодня 18:20

Часовой пояс: GMT



Вы не можете начинать темы
Вы не можете отвечать на сообщения
Вы не можете редактировать свои сообщения
Вы не можете удалять свои сообщения
Вы не можете голосовать в опросах
Вы не можете прикреплять файлы к сообщениям
Вы не можете скачивать файлы