Важное объявление!
У Нас Все раздачи мультитрекерные, при нуле пиров в релизах, можете смело вставать на закачку!
 
Автор Сообщение

HUNTER

Стаж:
4 года 4 месяца
Сообщений:
56853

Репутация: 101

[+] [-]
Вне форума [Профиль] [ЛС]

Площадка для игр дьявола / Прибежище Дьявола / The Devil's Playground
Страна: Австралия
Студия: The Australian Film Commission, The Film House
Жанр: драма
Год выпуска: 1976
Продолжительность: 01:39:02
Перевод: Одноголосый закадровый
Cубтитры: русские (Тарас Котов)
Оригинальная аудиодорожка: английский
Режиссер: Фред Скепси / Fred Schepisi
В ролях: Артур Дигнам, Ник Тейт, Саймон Бурк, Чарльз МакКаллум, Джон Фроули, Джонатан Харди, Джерри Дагган, Питер Кокс, Джон Дидрих, Томас Кенэлли, Шейла Флоранс, Алан Чинис, Ричард Морган, Роуэн Карри, Гэри Пикстон, Майкл Дэвид, Уоррен Коулман, Марк Гау, Эндрю Курт, Бретт Мёрфи, Уэйн Комли
Описание: Ученики католической семинарии вступили в рискованный период полового созревания, когда вскипевшие гормоны ударяют в голову, искушая соблазнами и подвергая сомнению правильность избранного ими пути. Одни ударяются в религиозный фанатизм, другие — пытаются во всём разобраться. Таким ищущим семинаристом оказывается Том Аллен, пытающийся свежим взглядом критически оценить рациональность церковных правил.

Sample
Тип релиза: BDRemux 1080p
Контейнер: MKV
Видео: MPEG4 AVC Video, H264, 16:9, 1920x1080, 23,976 fps, 29489 Kbps
Аудио: Russian (AC3, 2 ch, 192 kbps, 16 bits, 48.0 KHz) - VO
Аудио 2: English (DTS-HD MA, 2 ch, 2103 kbps, 24 bits, 48.0 KHz / DTS core: 2 ch, 1509 kbps, 24 bits, 48.0 KHz) - оригинал
Аудио 3: English (AC3, 2 ch, 224 kbps, 16 bits, 48.0 KHz) - комментарии
Формат субтитров: softsub (SRT)

MediaInfo

General
Unique ID : 244661503478686400437846746257168655250 (0xB8101771B5FC872F92035EE90721E392)
Complete name : E:\1\The Devil's Playground 1976 BDRemux 1080p.mkv
Format : Matroska
Format version : Version 4 / Version 2
File size : 22.0 GiB
Duration : 1h 39mn
Overall bit rate mode : Variable
Overall bit rate : 31.9 Mbps
Encoded date : UTC 2014-08-01 03:42:50
Writing application : mkvmerge v6.1.0 ('Old Devil') built on Mar 2 2013 14:32:37
Writing library : libebml v1.3.0 + libmatroska v1.4.0
Video
ID : 1
Format : AVC
Format/Info : Advanced Video Codec
Format profile : High@L4.1
Format settings, CABAC : Yes
Format settings, ReFrames : 4 frames
Codec ID : V_MPEG4/ISO/AVC
Duration : 1h 39mn
Bit rate mode : Variable
Maximum bit rate : 37.0 Mbps
Width : 1 920 pixels
Height : 1 080 pixels
Display aspect ratio : 16:9
Frame rate mode : Constant
Frame rate : 23.976 fps
Color space : YUV
Chroma subsampling : 4:2:0
Bit depth : 8 bits
Scan type : Progressive
Language : English
Default : Yes
Forced : No
Audio #1
ID : 2
Format : AC-3
Format/Info : Audio Coding 3
Mode extension : CM (complete main)
Format settings, Endianness : Big
Codec ID : A_AC3
Duration : 1h 39mn
Bit rate mode : Constant
Bit rate : 192 Kbps
Channel count : 2 channels
Channel positions : Front: L R
Sampling rate : 48.0 KHz
Bit depth : 16 bits
Compression mode : Lossy
Stream size : 136 MiB (1%)
Title : vo
Language : Russian
Default : Yes
Forced : No
Audio #2
ID : 3
Format : DTS
Format/Info : Digital Theater Systems
Format profile : MA / Core
Mode : 16
Format settings, Endianness : Big
Codec ID : A_DTS
Duration : 1h 39mn
Bit rate mode : Variable
Bit rate : Unknown / 1 509 Kbps
Channel count : 2 channels
Channel positions : Front: L R
Sampling rate : 48.0 KHz
Bit depth : 24 bits
Compression mode : Lossless / Lossy
Language : English
Default : No
Forced : No
Audio #3
ID : 4
Format : AC-3
Format/Info : Audio Coding 3
Mode extension : CM (complete main)
Format settings, Endianness : Big
Codec ID : A_AC3
Duration : 1h 39mn
Bit rate mode : Constant
Bit rate : 224 Kbps
Channel count : 2 channels
Channel positions : Front: L R
Sampling rate : 48.0 KHz
Bit depth : 16 bits
Compression mode : Lossy
Stream size : 159 MiB (1%)
Title : комментарии
Language : English
Default : No
Forced : No
Text
ID : 5
Format : UTF-8
Codec ID : S_TEXT/UTF8
Codec ID/Info : UTF-8 Plain Text
Language : Russian
Default : No
Forced : No

Скриншоты


_________________
Показать сообщения:    

Текущее время: Сегодня 10:30

Часовой пояс: GMT



Вы не можете начинать темы
Вы не можете отвечать на сообщения
Вы не можете редактировать свои сообщения
Вы не можете удалять свои сообщения
Вы не можете голосовать в опросах
Вы не можете прикреплять файлы к сообщениям
Вы не можете скачивать файлы
Наши партнеры: интернет магазин Ивановского трикотажа textilla.ru