Важное объявление!
У Нас Все раздачи мультитрекерные, при нуле пиров в релизах, можете смело вставать на закачку!
 
Автор Сообщение

HUNTER

Стаж:
4 года 4 месяца
Сообщений:
56808

Репутация: 101

[+] [-]
Вне форума [Профиль] [ЛС]

Пленники солнца / Prisoners of the Sun
Страна: США, Германия
Жанр: ужасы, боевик, детектив, приключения
Год выпуска: 2013
Продолжительность: 01:27:49
Перевод: Профессиональный (многоголосый закадровый) Кинопоказ
Cубтитры: нет
Оригинальная аудиодорожка: английский
Режиссер: Роджер Кристиан / Roger Christian
В ролях: Джон Рис-Дэвис
Дэвид Чэрвет
Кармен Чаплин
Эмили Холмс
Ник Моран
Джосс Экленд
Майкл Хиггс
Гульшан Гровер
Мохамед Ахзам
Эди Ареллано
Описание: Международная экспедиция обнаруживает потерянный город в подземелье под пирамидой. Археологи должны помешать пробудившимся фараонам древнего Египта устроить апокалипсис.
Сэмпл: https://yadi.sk/i/gjqXBA1QX2aqi
Тип релиза: BDRip 1080p
Контейнер: MKV
Видео: AVC, 1920x1080 (16/9), 24.000 fps, 10 000 Kbps (0.201 bit/pixel)
Аудио 1: Russian: AC3, 48.0 KHz, 2 ch, 192 Kbps, CBR
Аудио 2: English: 48 kHz, DTS, 3/2 (L,C,R,l,r) + LFE ch, ~1509 kbps avg

MediaInfo

Общее
Уникальный идентификатор : 186426980791649679021204180583228151488 (0x8C4087CD32E04E428B03E155D3EC96C0)
Полное имя : K:\МОИ РАЗДАЧИ\Prisoners.of.the.Sun.2013.1080p.BluRay.DTS.x264-BARC0DE.mkv
Формат : Matroska
Версия формата : Version 2
Размер файла : 7,16 Гбайт
Продолжительность : 1 ч. 27 м.
Общий поток : 11,7 Мбит/сек
Дата кодирования : UTC 2014-07-21 11:18:26
Программа кодирования : mkvmerge v6.1.0 ('Old Devil') built on Mar 2 2013 14:32:37
Библиотека кодирования : libebml v1.3.0 + libmatroska v1.4.0
Видео
Идентификатор : 1
Формат : AVC
Формат/Информация : Advanced Video Codec
Профиль формата : High@L4.0
Параметр CABAC формата : Да
Параметр ReFrames формата : 4 кадра
Идентификатор кодека : V_MPEG4/ISO/AVC
Продолжительность : 1 ч. 27 м.
Битрейт : 10000 Кбит/сек
Ширина : 1920 пикселей
Высота : 1080 пикселей
Соотношение сторон : 16:9
Режим частоты кадров : Постоянный
Частота кадров : 24,000 кадра/сек
Цветовое пространство : YUV
Субдискретизация насыщенности : 4:2:0
Битовая глубина : 8 бит
Тип развёртки : Прогрессивная
Бит/(Пиксели*Кадры) : 0.201
Размер потока : 5,97 Гбайт (83%)
Библиотека кодирования : x264 core 130 r2273 b3065e6
Настройки программы : cabac=1 / ref=3 / deblock=1:0:0 / analyse=0x3:0x113 / me=hex / subme=7 / psy=1 / psy_rd=1.00:0.00 / mixed_ref=1 / me_range=16 / chroma_me=1 / trellis=1 / 8x8dct=1 / cqm=0 / deadzone=21,11 / fast_pskip=1 / chroma_qp_offset=-2 / threads=12 / lookahead_threads=2 / sliced_threads=0 / nr=0 / decimate=1 / interlaced=0 / bluray_compat=0 / constrained_intra=0 / bframes=3 / b_pyramid=2 / b_adapt=1 / b_bias=0 / direct=1 / weightb=1 / open_gop=0 / weightp=2 / keyint=240 / keyint_min=24 / scenecut=40 / intra_refresh=0 / rc_lookahead=40 / rc=abr / mbtree=1 / bitrate=10000 / ratetol=1.0 / qcomp=0.60 / qpmin=0 / qpmax=69 / qpstep=4 / vbv_maxrate=25000 / vbv_bufsize=31250 / nal_hrd=none / ip_ratio=1.40 / aq=1:1.00
Язык : English
Default : Да
Forced : Нет
Основные цвета : BT.709
Характеристики трансфера : BT.709
Коэффициенты матрицы : BT.709
Аудио #1
Идентификатор : 2
Формат : AC-3
Формат/Информация : Audio Coding 3
Расширение режима : CM (complete main)
Параметр Endianness формата : Big
Идентификатор кодека : A_AC3
Продолжительность : 1 ч. 27 м.
Вид битрейта : Постоянный
Битрейт : 192 Кбит/сек
Каналы : 2 канала
Расположение каналов : Front: L R
Частота : 48,0 КГц
Битовая глубина : 16 бит
Метод сжатия : С потерями
Размер потока : 121 Мбайт (2%)
Заголовок : Профессиональный (многоголосый закадровый) Кинопоказ
Язык : Russian
Default : Да
Forced : Нет
Аудио #2
Идентификатор : 3
Формат : DTS
Формат/Информация : Digital Theater Systems
Режим : 16
Параметр Endianness формата : Big
Идентификатор кодека : A_DTS
Продолжительность : 1 ч. 27 м.
Вид битрейта : Постоянный
Битрейт : 1509 Кбит/сек
Каналы : 6 каналов
Расположение каналов : Front: L C R, Side: L R, LFE
Частота : 48,0 КГц
Битовая глубина : 16 бит
Метод сжатия : С потерями
Размер потока : 948 Мбайт (13%)
Язык : English
Default : Нет
Forced : Нет
Меню
00:00:00.000 : en:Chapter 1
00:08:45.125 : en:Chapter 2
00:16:35.791 : en:Chapter 3
00:25:20.375 : en:Chapter 4
00:29:30.083 : en:Chapter 5
00:34:14.375 : en:Chapter 6
00:41:41.833 : en:Chapter 7
00:51:20.625 : en:Chapter 8
01:00:08.875 : en:Chapter 9
01:05:34.000 : en:Chapter 10
01:12:30.500 : en:Chapter 11
01:23:17.666 : en:Chapter 12

Скриншоты


_________________
Показать сообщения:    

Текущее время: Сегодня 14:20

Часовой пояс: GMT



Вы не можете начинать темы
Вы не можете отвечать на сообщения
Вы не можете редактировать свои сообщения
Вы не можете удалять свои сообщения
Вы не можете голосовать в опросах
Вы не можете прикреплять файлы к сообщениям
Вы не можете скачивать файлы