Важное объявление!
У Нас Все раздачи мультитрекерные, при нуле пиров в релизах, можете смело вставать на закачку!
 
Автор Сообщение

димитри37

Стаж:
3 года 9 месяцев
Сообщений:
1237

Репутация: 127

[+] [-]
Вне форума [Профиль] [ЛС]

Плезантвиль / Pleasantville
Страна: США
Жанр: фэнтези, драма, комедия
Год выпуска: 1998
Продолжительность: 02:04:31
Перевод: Профессиональный (многоголосый закадровый)
Перевод 2: Профессиональный (многоголосый закадровый) СP Digital
Cубтитры: нет
Оригинальная аудиодорожка: английский
Режиссер: Гэри Росс / Gary Ross
В ролях: Тоби Магуайр, Риз Уизерспун, Пол Уокер, Джефф Дэниелс, Уильям Х. Мэйси, Джоан Аллен, Дж.Т. Уолш, Дон Ноттс, Марли Шелтон, Джейн Качмарек, Джузеппе Эндрюс, Дженни Льюис, Марисса Рибизи
Описание: Дэвид Вагнер — дитя девяностых. Но он увлечен телевизионным шоу «Плезантвиль», где действие происходит в 50-е годы в небольшом одноименном городке, где все шикарны, веселы и непорочны, и жизнь удивительно приятна.
Завороженный этим утопическим миром, Дэвид воображает себя в «Плезантвиле», где он наконец-то избавился бы от своей взбалмошной и помешанной на парнях сестры Дженнифер. И однажды вечером жизнь совершает причудливый поворот: странный телемастер вручает Дэвиду необычный пульт дистанционного управления, который отправляет его вместе с сестрой прямо в Плезантвиль. Визит пришельцев не прошел для города бесследно, удивительным образом изменив судьбы его обитателей.

Качество видео: BDRip
Формат видео: AVI
Видео: 720x400, 23.976 fps, 1474 kbps avg, 0.213 bit/pixel
Аудио: 48 kHz, AC3 Dolby Digital, 2 ch, 192 kbps
Аудио 2: 48 kHz, AC3 Dolby Digital, 3/2 (L,C,R,l,r) LFE ch, ~448.00 kbps avg | MVO СP Digital | отдельно
Аудио 3: 48 kHz, AC3 Dolby Digital, 3/2 (L,C,R,l,r) LFE ch, ~448.00 kbps avg | Eng | отдельно

MediaInfo

General
Complete name : C:\фильмы\Pleasantville.1998.BDRip\Pleasantville.1998.BDRip.JRG.avi
Format : AVI
Format/Info : Audio Video Interleave
File size : 1.46 GiB
Duration : 2h 4mn
Overall bit rate : 1 675 Kbps
Movie name : Pleasantville.1998.BDRip.JRG.[ СПАМ
Writing application : VirtualDubMod 1.5.10.2 (build 2540/release)
Writing library : VirtualDubMod build 2540/release
Copyright : R.G. Jolly Roger
Video
ID : 0
Format : MPEG-4 Visual
Format profile : Advanced Simple@L5
Format settings, BVOP : Yes
Format settings, QPel : No
Format settings, GMC : No warppoints
Format settings, Matrix : Default (MPEG)
Codec ID : XVID
Codec ID/Hint : XviD
Duration : 2h 4mn
Bit rate : 1 474 Kbps
Width : 720 pixels
Height : 400 pixels
Display aspect ratio : 16:9
Frame rate : 23.976 fps
Color space : YUV
Chroma subsampling : 4:2:0
Bit depth : 8 bits
Scan type : Progressive
Bits/(Pixel*Frame) : 0.213
Stream size : 1.28 GiB (88%)
Writing library : XviD 1.2.0.dev47 (UTC 2006-11-01)
Audio
ID : 1
Format : AC-3
Format/Info : Audio Coding 3
Mode extension : CM (complete main)
Codec ID : 2000
Duration : 2h 4mn
Bit rate mode : Constant
Bit rate : 192 Kbps
Channel(s) : 2 channels
Channel positions : Front: L R
Sampling rate : 48.0 KHz
Bit depth : 16 bits
Stream size : 171 MiB (11%)
Alignment : Split accross interleaves
Interleave, duration : 42 ms (1.00 video frame)
Interleave, preload duration : 500 ms

Скриншоты

-
Показать сообщения:    

Текущее время: Сегодня 00:55

Часовой пояс: GMT



Вы не можете начинать темы
Вы не можете отвечать на сообщения
Вы не можете редактировать свои сообщения
Вы не можете удалять свои сообщения
Вы не можете голосовать в опросах
Вы не можете прикреплять файлы к сообщениям
Вы не можете скачивать файлы