Важное объявление!
У Нас Все раздачи мультитрекерные, при нуле пиров в релизах, можете смело вставать на закачку!
 
Автор Сообщение

HUNTER

Стаж:
4 года 4 месяца
Сообщений:
56722

Репутация: 101

[+] [-]
Вне форума [Профиль] [ЛС]

Пластик / Plastic
Страна: Великобритания
Студия: Gateway Films
Жанр: Боевик, драма, комедия, криминал
Год выпуска: 2014
Продолжительность: 01:41:57
Перевод: Профессиональный (дублированный)
Cубтитры: английские
Оригинальная аудиодорожка: английский
Режиссер: Джулиан Джилби / Julian Gilbey
В ролях: Эдвард Спелирс, Уилл Поултер, Элфи Оуэн-Аллен, Себастьян Де Соуза, Эмма Ригби, Томас Кречман, Грэм МакТавиш, Малис Джоу, Терри Стоун, Эшли Чин
Описание: Фильм "Пластик" основан на правдивой истории, где группе друзей удалось проникнуть в одну из крупнейших мировых компаний, работающей с кредитными картами, и осуществить один из самых больших и самых смелых грабежей, когда-либо имевших место в британской истории. Сэм и Форди посредством мошенничества с кредитной картой крадут деньги "не у того человека". Теперь им угрожает садистский гангстер. Они должны заработать 5 миллионов фунтов и осуществить смелый алмазный грабеж, чтобы избавиться от их долга.
Сэмпл: http://sendfile.su/1052171
Тип релиза: BDRip 1080p
Контейнер: MKV
Видео: MPEG4 AVC, 1920x804, 12.0 Mbps, 24 fps
Аудио: Русский, AC3, 6 ch, 48.0 KHz, 448 Кбит/с
Аудио 2: Английский, DTS, 6 ch, 48.0 KHz, 768 Кбит/с

MediaInfo

General
Unique ID : 209661426568097811904825668928347379119 (0x9DBB526C09FCC76ABD6D0BA0A73915AF)
Complete name : I:\torrents\Plastic.2014.1080p.BluRay.mkv
Format : Matroska
Format version : Version 4 / Version 2
File size : 9.57 GiB
Duration : 1h 41mn
Overall bit rate : 13.4 Mbps
Encoded date : UTC 2014-09-28 07:14:04
Writing application : mkvmerge v7.0.0 ('Where We Going') 32bit built on Jun 9 2014 15:08:34
Writing library : libebml v1.3.0 + libmatroska v1.4.1
_STATISTICS_WRITING_APP : mkvmerge v7.0.0 ('Where We Going') 32bit built on Jun 9 2014 15:08:34
_STATISTICS_WRITING_DATE_UTC : 2014-09-28 07:14:04
_STATISTICS_TAGS : BPS DURATION NUMBER_OF_FRAMES NUMBER_OF_BYTES
DURATION : 01:41:42.240000000
NUMBER_OF_FRAMES : 190695
NUMBER_OF_BYTES : 341725440
Video
ID : 1
Format : AVC
Format/Info : Advanced Video Codec
Format profile : High@L4.1
Format settings, CABAC : Yes
Format settings, ReFrames : 5 frames
Codec ID : V_MPEG4/ISO/AVC
Duration : 1h 41mn
Bit rate : 12.0 Mbps
Width : 1 920 pixels
Height : 804 pixels
Display aspect ratio : 2.40:1
Frame rate : 24.000 fps
Color space : YUV
Chroma subsampling : 4:2:0
Bit depth : 8 bits
Scan type : Progressive
Bits/(Pixel*Frame) : 0.323
Stream size : 8.52 GiB (89%)
Writing library : x264 core 142 r2479kMod dd79a61
Encoding settings : cabac=1 / ref=5 / deblock=1:-3:-3 / analyse=0x3:0x133 / me=umh / subme=10 / psy=1 / fade_compensate=0.00 / psy_rd=1.00:0.00 / mixed_ref=1 / me_range=24 / chroma_me=1 / trellis=2 / 8x8dct=1 / cqm=0 / deadzone=21,11 / fast_pskip=0 / chroma_qp_offset=-2 / threads=24 / lookahead_threads=6 / sliced_threads=0 / nr=0 / decimate=0 / interlaced=0 / bluray_compat=0 / constrained_intra=0 / fgo=0 / bframes=10 / b_pyramid=2 / b_adapt=2 / b_bias=0 / direct=3 / weightb=1 / open_gop=0 / weightp=2 / keyint=250 / keyint_min=24 / scenecut=40 / intra_refresh=0 / rc=crf / mbtree=0 / crf=16.6000 / qcomp=0.75 / qpmin=0 / qpmax=69 / qpstep=4 / ip_ratio=1.20 / pb_ratio=1.20 / aq=1:0.90
Language : English
Default : Yes
Forced : No
_STATISTICS_WRITING_APP : mkvmerge v7.0.0 ('Where We Going') 32bit built on Jun 9 2014 15:08:34
_STATISTICS_WRITING_DATE_UTC : 2014-09-28 07:14:04
_STATISTICS_TAGS : BPS DURATION NUMBER_OF_FRAMES NUMBER_OF_BYTES
DURATION : 01:41:56.625000000
NUMBER_OF_FRAMES : 146799
NUMBER_OF_BYTES : 9312308226
Audio #1
ID : 2
Format : AC-3
Format/Info : Audio Coding 3
Mode extension : CM (complete main)
Codec ID : A_AC3
Duration : 1h 41mn
Bit rate mode : Constant
Bit rate : 448 Kbps
Channel(s) : 6 channels
Channel positions : Front: L C R, Side: L R, LFE
Sampling rate : 48.0 KHz
Bit depth : 16 bits
Compression mode : Lossy
Stream size : 327 MiB (3%)
Language : Russian
Default : Yes
Forced : No
Audio #2
ID : 3
Format : DTS
Format/Info : Digital Theater Systems
Codec ID : A_DTS
Duration : 1h 41mn
Bit rate mode : Constant
Bit rate : 755 Kbps
Channel(s) : 6 channels
Channel positions : Front: L C R, Side: L R, LFE
Sampling rate : 48.0 KHz
Bit depth : 24 bits
Compression mode : Lossy
Stream size : 550 MiB (6%)
Language : English
Default : No
Forced : No
Text
ID : 4
Format : PGS
Codec ID : S_HDMV/PGS
Codec ID/Info : The same subtitle format used on BDs/HD-DVDs
Language : English
Default : No
Forced : No
Menu
00:00:00.000 : en:00:00:00.000
00:07:26.917 : en:00:07:26.917
00:16:18.625 : en:00:16:18.625
00:26:26.708 : en:00:26:26.708
00:33:36.125 : en:00:33:36.125
00:41:20.292 : en:00:41:20.292
00:50:39.750 : en:00:50:39.750
00:58:34.458 : en:00:58:34.458
01:04:23.208 : en:01:04:23.208
01:14:56.708 : en:01:14:56.708
01:21:30.833 : en:01:21:30.833
01:32:08.208 : en:01:32:08.208

Скриншоты


_________________
Показать сообщения:    

Текущее время: Сегодня 14:59

Часовой пояс: GMT



Вы не можете начинать темы
Вы не можете отвечать на сообщения
Вы не можете редактировать свои сообщения
Вы не можете удалять свои сообщения
Вы не можете голосовать в опросах
Вы не можете прикреплять файлы к сообщениям
Вы не можете скачивать файлы