Важное объявление!
У Нас Все раздачи мультитрекерные, при нуле пиров в релизах, можете смело вставать на закачку!
 
Автор Сообщение

HUNTER

Стаж:
4 года 4 месяца
Сообщений:
56798

Репутация: 101

[+] [-]
Вне форума [Профиль] [ЛС]

Планета обезьян: Революция / Dawn of the Planet of the Apes
Страна: США
Жанр: фантастика, боевик, драма
Год выпуска: 2014
Продолжительность: 02:10:42
Перевод: Профессиональный (полное дублирование) Line
Cубтитры: английские
Оригинальная аудиодорожка: английский
Режиссер: Мэтт Ривз/ Matt Reeves
В ролях: Энди Серкис, Джейсон Кларк, Гари Олдман, Кери Расселл, Тоби Кеббелл, Коди Смит-МакФи, Кирк Асеведо, Ник Тёрстон, Терри Нотари, Карин Коновал, Джуди Грир, Джон Эйз, Энрике Мурсиано
Описание: Численность генетически модифицированных обезьян, возглавляемых Цезарем, продолжает увеличиваться, но обезьянам угрожают люди, которым удалось выжить во время ужасной эпидемии десятилетней давности. Поначалу между соперниками устанавливается хрупкий мир, но он оказывается недолговечным. Обезьяны и люди находятся на грани войны, в ходе которой станет понятно, кто из них в будущем станет безраздельно править планетой.
Сэмпл: http://multi-up.com/1009535
Качество видео: WEB-DL 1080p
Формат видео: MKV
Видео: MPEG-4 AVC 1916x1034 23.976 fps 4670 Kbps
Аудио 1: MP3 48.0 KHz 320 Kbps Stereo Language: Russian Line
Аудио 2: AC3 48.0 KHz 384 Kbps DD5.1 Language: English
Формат субтитров: softsub (SRT)

MediaInfo

D:\TORRENTS\Dawn.Of.The.Planet.of.The.Apes.2014.1080p.WEB-DL.DD51.H264.mkv
General
Unique ID : 172599261496768260696809983516314311965 (0x81D9689AA318F9638FD38AFA66361D1D)
Complete name : D:\TORRENTS\Dawn.Of.The.Planet.of.The.Apes.2014.1080p.WEB-DL.DD51.H264.mkv
Format : Matroska
Format version : Version 4 / Version 2
File size : 5.00 GiB
Duration : 2h 10mn
Overall bit rate : 5 483 Kbps
Encoded date : UTC 2014-10-29 15:10:01
Writing application : mkvmerge v7.3.0 ('Nouages') 32bit built on Oct 22 2014 18:44:01
Writing library : libebml v1.3.0 + libmatroska v1.4.1
_STATISTICS_WRITING_APP : mkvmerge v7.3.0 ('Nouages') 32bit built on Oct 22 2014 18:44:01
_STATISTICS_WRITING_DATE_UTC : 2014-10-29 15:10:01
_STATISTICS_TAGS : BPS DURATION NUMBER_OF_FRAMES NUMBER_OF_BYTES
DURATION : 01:57:35.965000000
NUMBER_OF_FRAMES : 866
NUMBER_OF_BYTES : 20689
Attachment : Yes / Yes / Yes / Yes
Video #3
ID : 3
Format : AVC
Format/Info : Advanced Video Codec
Format profile : High@L4.0
Format settings, CABAC : Yes
Format settings, ReFrames : 4 frames
Codec ID : V_MPEG4/ISO/AVC
Duration : 2h 10mn
Bit rate : 4 670 Kbps
Width : 1 916 pixels
Height : 1 034 pixels
Display aspect ratio : 1.853
Frame rate : 23.976 fps
Color space : YUV
Chroma subsampling : 4:2:0
Bit depth : 8 bits
Scan type : Progressive
Bits/(Pixel*Frame) : 0.098
Stream size : 4.26 GiB (85%)
Title : Dawn.Of.The.Planet.of.The.Apes.2014.1080p.WEB-DL.DD51.H264
Language : English
Color primaries : BT.709-5, BT.1361, IEC 61966-2-4, SMPTE RP177
Transfer characteristics : BT.709-5, BT.1361
Matrix coefficients : BT.709-5, BT.1361, IEC 61966-2-4 709, SMPTE RP177
Audio #1
ID : 1
Format : MPEG Audio
Format version : Version 1
Format profile : Layer 3
Mode : Joint stereo
Mode extension : MS Stereo
Codec ID : A_MPEG/L3
Codec ID/Hint : MP3
Duration : 2h 10mn
Bit rate mode : Constant
Bit rate : 320 Kbps
Channel(s) : 2 channels
Sampling rate : 48.0 KHz
Compression mode : Lossy
Stream size : 299 MiB (6%)
Title : РУССКАЯ MP3
Language : Russian
Audio #2
ID : 2
Format : AC-3
Format/Info : Audio Coding 3
Mode extension : CM (complete main)
Codec ID : A_AC3
Duration : 2h 10mn
Bit rate mode : Constant
Bit rate : 384 Kbps
Channel(s) : 6 channels
Channel positions : Front: L C R, Side: L R, LFE
Sampling rate : 48.0 KHz
Bit depth : 16 bits
Compression mode : Lossy
Stream size : 359 MiB (7%)
Title : АНГЛИЙСКАЯ DD 5.1
Language : English
Text #4
ID : 4
Format : UTF-8
Codec ID : S_TEXT/UTF8
Codec ID/Info : UTF-8 Plain Text
Language : English

Скриншот c названием фильма


Скриншоты







_________________
Показать сообщения:    

Текущее время: Сегодня 08:17

Часовой пояс: GMT



Вы не можете начинать темы
Вы не можете отвечать на сообщения
Вы не можете редактировать свои сообщения
Вы не можете удалять свои сообщения
Вы не можете голосовать в опросах
Вы не можете прикреплять файлы к сообщениям
Вы не можете скачивать файлы