Важное объявление!
У Нас Все раздачи мультитрекерные, при нуле пиров в релизах, можете смело вставать на закачку!
 
Автор Сообщение

HUNTER

Стаж:
4 года 4 месяца
Сообщений:
56722

Репутация: 101

[+] [-]
Вне форума [Профиль] [ЛС]

Пираты Карибского моря: На странных берегах / Pirates of the Caribbean: On Stranger Tides
Год выпуска: 2011
Страна: США
Жанр: фэнтези, боевик, комедия, приключения
Продолжительность: 2:16:23
Перевод: Профессиональный (дублированный)
Русские субтитры: нет
Режиссер на русском: Роб Маршалл
Режиссер на английском: Rob Marshall
В ролях: Джонни Депп, Пенелопа Крус, Джеффри Раш, Иэн МакШейн, Кевин МакНэлли, Стивен Грэм, Сэм Клафлин, Астрид Берже-Фрисби, Кит Ричардс, Ричард Гриффит.
Описание: В новой истории о поисках истины, предательстве, вечной молодости и смертельной опасности капитану Джеку Воробью предстоит столкнуться с женщиной из своего прошлого Анжеликой. До самого конца не будет понятно, связывает ли их настоящая любовь, или же Анжелика искусно притворяется, чтобы вместе с Джеком добраться до таинственного источника вечной молодости. Она силой принуждает капитана Джека Воробья взойти на корабль Месть Королевы Анны, которым управляет коварный злодей Черная Борода. Наш герой оказывается в ситуации, когда он не знает, чего ему бояться больше - ужасного злодея или же свою давнюю подругу.
Качество: BDrip
Контейнер: MKV
Формат 3D: Full SideBySide / Полная горизонтальная стереопара
Порядок ракурсов: левый ракурс первый
Видео кодек: h.264
Аудио кодек: AC3
Видео: 2560x544, 23.976 кадр / с, 8066 Кбит / с
Аудио: AC3, 48,0 КГц, 6 каналов, 384 Кбит / сек | Русский
Аудио 2: DTS, 48,0 КГц, 6 каналов, 1510 Кбит / сек | Английский

MediaInfo

Формат: Matroska
Версия формата: Version 2
Размер файла: 9,69 Гбайт
Продолжительность: 2 ч. 16 м.
Общий поток: 10,2 Мбит / сек
Название фильма: Пираты Карибского моря: На странных берегах / Пираты Карибского моря: На странных берегах / 2011
Дата кодирования: UTC 2011-08-27 20:28:23
Программа кодирования: mkvmerge v4.8.0 ('I Got The ... ») Сборка от 24 мая 2011 03:12:58
Библиотека кодирования: libebml v1.2.0 + libmatroska v1.1.0
Видео
Идентификатор: 1
Формат: AVC
Формат / Информация: Advanced Video Codec
Профиль формата: [электронная почта защищена]
Параметр CABAC формата: Да
Параметр меняет взгляды формата: 6 кадров
Идентификатор кодека: V_MPEG4 / ISO / AVC
Продолжительность: 2 ч. 16 м.
Битрейт: 8071 Кбит / сек
Ширина: 2 560 пикселей
Высота: 544 пикселя
Соотношение сторон: 4,706
Частота кадров: 23 976 кадра / сек
Цветовое пространство: YUV
Субдискретизация насыщенности: 4: 2: 0
Битовая глубина: 8 бит
Тип развёртки: Прогрессивная
Бит / (Пиксели * Кадры): 0.242
Размер потока: 7,69 Гбайт (79%)
Заголовок: Пираты Карибского моря: На странных берегах / Пираты Карибского моря: На странных берегах / 2011
Библиотека кодирования: x264 сердцевина 116 r2057 0ba8a9c
Настройки программы: CABAC = 1 / исх = 6 / деблокирующий = 1: -3: -2 / анализа = 0x3: 0x133 / я = UMH / subme = 10 / пси = 1 / psy_rd = 0,85: 0,05 / mixed_ref = 1 / me_range = 48 / chroma_me = 1/2 = шпалеры / 8x8dct = 1 / НКИ = 0 / мертвая зона = 21,11 / fast_pskip = 0 / chroma_qp_offset = -3 / темы = 9 / sliced_threads = 0 / NR = 0 / = 0 уничтожить / чересстрочной = 0 / bluray_compat = 0 / constrained_intra = 0 / bframes = 7 / b_pyramid = 2 / b_adapt = 2 / b_bias = 0 / DIRECT = 3 / weightb = 1 / open_gop = 0 / weightp = 2 / keyint = 360 / keyint_min = 6 / scenecut = 40 / intra_refresh = 0 / rc_lookahead = 60 / RC = CRF / mbtree = 1 / CRF = 18,5 / qcomp = 0,68 / qpmin = 0 / qpmax = 69 / qpstep = 4 / vbv_maxrate = 50000 / vbv_bufsize = 45000 / crf_max = 0,0 / nal_hrd = нет / кадр-упаковка = 3 / ip_ratio = 1,40 / ая = 2: 1.00
Язык: Английский
Аудио # 1
Идентификатор: 2
Формат: AC-3
Формат / Информация: Audio Coding 3
Расширение режима: CM (завершить основной)
Идентификатор кодека: A_AC3
Продолжительность: 2 ч. 16 м.
Вид битрейта: Постоянный
Битрейт: 384 Кбит / сек
Каналы: 6 каналов
Расположение каналов: Front: LCR, сторона: LR, LFE
Частота: 48,0 КГц
Битовая глубина: 16 бит
Метод сжатия: С потерями
Размер потока: 375 Мбайт (4%)
Заголовок: [DUB] AC3, 6 ч, 384 Кбит / с
Язык: Русский
Аудио # 2
Идентификатор: 3
Формат: DTS
Формат / Информация: Digital Theater Systems,
Идентификатор кодека: A_DTS
Продолжительность: 2 ч. 16 м.
Вид битрейта: Постоянный
Битрейт: 1510 Кбит / сек
Каналы: 6 каналов
Расположение каналов: Front: LCR, сторона: LR, LFE
Частота: 48,0 КГц
Битовая глубина: 24 бит
Метод сжатия: С потерями
Задержка видео: 11 мс.
Размер потока: 1,44 Гбайт (15%)
Заголовок: [Оригинал] DTS, 6 ч, 1510 Кбит / с
Язык: Английский

Скриншоты




_________________
Показать сообщения:    

Текущее время: Сегодня 16:54

Часовой пояс: GMT



Вы не можете начинать темы
Вы не можете отвечать на сообщения
Вы не можете редактировать свои сообщения
Вы не можете удалять свои сообщения
Вы не можете голосовать в опросах
Вы не можете прикреплять файлы к сообщениям
Вы не можете скачивать файлы