Важное объявление!
У Нас Все раздачи мультитрекерные, при нуле пиров в релизах, можете смело вставать на закачку!
 
Автор Сообщение

HUNTER

Стаж:
4 года 4 месяца
Сообщений:
56798

Репутация: 101

[+] [-]
Вне форума [Профиль] [ЛС]

Пираты Карибского моря: На странных берегах
Pirates of the Caribbean: On Stranger Tides
-
Название: Пираты Карибского моря: На странных берегах
Оригинальное название: Pirates of the Caribbean: On Stranger Tides
Год выпуска: 2011
Страна: США
Жанр: фэнтези, боевик, комедия, приключения
Продолжительность: 02:16:23
Перевод: Профессиональный (дублированный)
Русские субтитры: нет
Оригинальная аудиодорожка: английский-Режиссер: Роб Маршалл | Rob Marshall
В ролях: Джонни Депп, Пенелопа Крус, Джеффри Раш, Иэн МакШейн, Кевин МакНэлли, Стивен Грэм, Сэм Клафлин, Астрид Берже-Фрисби, Кит Ричардс, Ричард Гриффит.-Описание: В новой истории о поисках истины, предательстве, вечной молодости и смертельной опасности капитану Джеку Воробью предстоит столкнуться с женщиной из своего прошлого Анжеликой. До самого конца не будет понятно, связывает ли их настоящая любовь, или же Анжелика искусно притворяется, чтобы вместе с Джеком добраться до таинственного источника вечной молодости. Она силой принуждает капитана Джека Воробья взойти на корабль Месть Королевы Анны, которым управляет коварный злодей Черная Борода. Наш герой оказывается в ситуации, когда он не знает, чего ему бояться больше - ужасного злодея или же свою давнюю подругу.-Формат 3D: OverUnder | Вертикальная стереопара
Качество: BDRip 1080p
Контейнер: MKV
Видео: 1920x2160 (0,889), 23.976 fps, High Profile 5.0 ~22300 kbps
Аудио 1: Russian 48 kHz, 5.1 AC3 Dolby Digital Audio, 640 kbps avg
Аудио 2: Ukrainian 48 kHz, 5.1 AC3 Dolby Digital Audio, 640 kbps avg
Аудио 3: English 48 kHz, 5.1 AC3 Dolby Digital Audio, 640 kbps avg

Инфо

Формат : Matroska
Версия формата : Version 2
Размер файла : 23,6 Гбайт
Продолжительность : 2 ч. 16 м.
Общий поток : 24,7 Мбит/сек
Дата кодирования : UTC 2011-09-13 03:27:48
Программа кодирования : mkvmerge v3.4.0 ('Rapunzel') сборка от May 15 2010 09:38:20
Библиотека кодирования : libebml v0.8.0 + libmatroska v0.9.0
Видео
Идентификатор : 1
Формат : AVC
Формат/Информация : Advanced Video Codec
Профиль формата : High@L5.0
Параметр CABAC формата : Да
Параметр ReFrames формата : 4 кадра
Идентификатор кодека : V_MPEG4/ISO/AVC
Продолжительность : 2 ч. 16 м.
Битрейт : 22,3 Мбит/сек
Ширина : 1920 пикселей
Высота : 2160 пикселей
Соотношение сторон : 0,889
Режим частоты кадров : Постоянный
Частота кадров : 23,976 кадра/сек
Цветовое пространство : YUV
Субдискретизация насыщенности : 4:2:0
Битовая глубина : 8 бит
Тип развёртки : Прогрессивная
Бит/(Пиксели*Кадры) : 0.225
Размер потока : 21,3 Гбайт (90%)
Библиотека кодирования : x264 core 116 r2074 2641b9e
Настройки программы : cabac=1 / ref=4 / deblock=1:-3:-3 / analyse=0x3:0x113 / me=umh / subme=9 / psy=1 / psy_rd=1.00:0.00 / mixed_ref=1 / me_range=16 / chroma_me=1 / trellis=2 / 8x8dct=1 / cqm=0 / deadzone=21,11 / fast_pskip=1 / chroma_qp_offset=-3 / threads=9 / sliced_threads=0 / nr=0 / decimate=1 / interlaced=0 / bluray_compat=0 / constrained_intra=0 / bframes=6 / b_pyramid=0 / b_adapt=2 / b_bias=0 / direct=3 / weightb=1 / open_gop=0 / weightp=2 / keyint=250 / keyint_min=23 / scenecut=40 / intra_refresh=0 / rc_lookahead=40 / rc=crf / mbtree=1 / crf=18.0 / qcomp=0.60 / qpmin=0 / qpmax=69 / qpstep=4 / ip_ratio=1.40 / aq=1:1.00
Язык : English
Default : Нет
Forced : Нет
Аудио #1
Идентификатор : 2
Формат : AC-3
Формат/Информация : Audio Coding 3
Расширение режима : CM (complete main)
Параметр Endianness формата : Big
Идентификатор кодека : A_AC3
Продолжительность : 2 ч. 16 м.
Вид битрейта : Постоянный
Битрейт : 640 Кбит/сек
Каналы : 6 каналов
Расположение каналов : Front: L C R, Side: L R, LFE
Частота : 48,0 КГц
Битовая глубина : 16 бит
Метод сжатия : С потерями
Размер потока : 624 Мбайт (3%)
Язык : Russian
Default : Да
Forced : Нет
Аудио #2
Идентификатор : 3
Формат : AC-3
Формат/Информация : Audio Coding 3
Расширение режима : CM (complete main)
Параметр Endianness формата : Big
Идентификатор кодека : A_AC3
Продолжительность : 2 ч. 16 м.
Вид битрейта : Постоянный
Битрейт : 640 Кбит/сек
Каналы : 6 каналов
Расположение каналов : Front: L C R, Side: L R, LFE
Частота : 48,0 КГц
Битовая глубина : 16 бит
Метод сжатия : С потерями
Размер потока : 624 Мбайт (3%)
Язык : Ukrainian
Default : Нет
Forced : Нет
Аудио #3
Идентификатор : 4
Формат : AC-3
Формат/Информация : Audio Coding 3
Расширение режима : CM (complete main)
Параметр Endianness формата : Big
Идентификатор кодека : A_AC3
Продолжительность : 2 ч. 16 м.
Вид битрейта : Постоянный
Битрейт : 640 Кбит/сек
Каналы : 6 каналов
Расположение каналов : Front: L C R, Side: L R, LFE
Частота : 48,0 КГц
Битовая глубина : 16 бит
Метод сжатия : С потерями
Размер потока : 624 Мбайт (3%)
Язык : English
Default : Нет
Forced : Нет

Скриншоты


_________________
Показать сообщения:    

Текущее время: Сегодня 21:09

Часовой пояс: GMT



Вы не можете начинать темы
Вы не можете отвечать на сообщения
Вы не можете редактировать свои сообщения
Вы не можете удалять свои сообщения
Вы не можете голосовать в опросах
Вы не можете прикреплять файлы к сообщениям
Вы не можете скачивать файлы