Важное объявление!
У Нас Все раздачи мультитрекерные, при нуле пиров в релизах, можете смело вставать на закачку!
 
Автор Сообщение

HUNTER

Стаж:
4 года 4 месяца
Сообщений:
56848

Репутация: 101

[+] [-]
Вне форума [Профиль] [ЛС]

Пираты Карибского моря 4: На странных берегах
Pirates of the Caribbean 4: On Stranger Tides
-
  • Год выпуска: 2011 г.
  • Страна: США
  • Жанр: фэнтези, боевик, комедия, приключения
  • Продолжительность: 02:16:24
  • Перевод:
    Професиональный (полное дублирование) [Лицензия]
    Оригинал (English)
  • Субтитры: Русские, русские (форсированные), английские
  • Режиссер: Роб Маршалл / Rob Marshal
  • В ролях: Джонни Депп, Пенелопа Крус, Джеффри Раш, Иэн МакШейн, Кевин МакНэлли, Стивен Грэм, Сэм Клафлин, Астрид Берже-Фрисби, Кит Ричардс, Ричард Гриффитс
-В новой истории о поисках истины, предательстве, вечной молодости и смертельной опасности капитану Джеку Воробью предстоит столкнуться с женщиной из своего прошлого Анжеликой. До самого конца не будет понятно, связывает ли их настоящая любовь, или же Анжелика искусно притворяется, чтобы вместе с Джеком добраться до таинственного источника вечной молодости.
Она силой принуждает капитана Джека Воробья взойти на корабль «Месть Королевы Анны», которым управляет коварный злодей Черная Борода. Наш герой оказывается в ситуации, когда он не знает, чего ему бояться больше — ужасного злодея или же свою давнюю подругу…
- -
  • Качество: BDRip 720p [CtrlHD]
  • Формат: MKV
  • Видео кодек: x264
  • Аудио кодек: AC3
  • Видео: AVC at 1280x534, 6850 kbps, 23.976 fps
  • Аудио: AC-3 at 384 Кбит/сек, 6 канала(ов), 48,0 КГц | Russian |
  • Аудио 2: DTS at 1510 Кбит/сек, 6 канала(ов), 48,0 КГц | English |-

    Технические данные:

    Код: copyText_writeLink('this.parentNode.parentNode.nextSibling.nextSibling');
    H:\Piraty.Karibskogo.morya.4.2011.D.BDRip.720p.UNIONGANG.mkv
    General
    Complete name : H:\Piraty.Karibskogo.morya.4.2011.D.BDRip.720p.UNIONGANG.mkv
    Format : Matroska
    File size : 8.47 GiB
    Duration : 2h 16mn
    Overall bit rate : 8 895 Kbps
    Movie name : Pirates.of.the.Caribbean.On.Stranger.Tides.2011.720p.BluRay.DTS.x264-CtrlHD-UNIONGANG
    Encoded date : UTC 2011-08-26 09:32:58
    Writing application : mkvmerge v3.4.0 ('Rapunzel') сборка от May 15 2010 09:38:20
    Writing library : libebml v0.8.0 + libmatroska v0.9.0
    Video #1
    ID : 1
    Format : AVC
    Format/Info : Advanced Video Codec
    Format profile : [url=mailto:High@L4.1]High@L4.1[/url]
    Format settings, CABAC : Yes
    Format settings, ReFrames : 9 frames
    Muxing mode : Container profile=Unknown@4.1
    Codec ID : V_MPEG4/ISO/AVC
    Duration : 2h 16mn
    Bit rate : 6 825 Kbps
    Nominal bit rate : 7 000 Kbps
    Width : 1 280 pixels
    Height : 534 pixels
    Display aspect ratio : 2.35:1
    Frame rate : 23.976 fps
    Resolution : 24 bits
    Colorimetry : 4:2:0
    Scan type : Progressive
    Bits/(Pixel*Frame) : 0.416
    Stream size : 6.50 GiB (77%)
    Title : Pirates.of.the.Caribbean.On.Stranger.Tides.2011.720p.BluRay.DTS.x264-CtrlHD
    Writing library : x264 core 116 r2057 0ba8a9c
    Encoding settings : cabac=1 / ref=9 / deblock=1:-3:-3 / analyse=0x3:0x133 / me=umh / subme=10 / psy=1 / psy_rd=1.08:0.10 / mixed_ref=1 / me_range=32 / chroma_me=1 / trellis=2 / 8x8dct=1 / cqm=0 / deadzone=21,11 / fast_pskip=1 / chroma_qp_offset=-3 / threads=12 / sliced_threads=0 / nr=0 / decimate=1 / interlaced=0 / bluray_compat=0 / constrained_intra=0 / bframes=8 / b_pyramid=2 / b_adapt=2 / b_bias=0 / direct=3 / weightb=1 / open_gop=1 / weightp=2 / keyint=250 / keyint_min=23 / scenecut=40 / intra_refresh=0 / rc_lookahead=80 / rc=2pass / mbtree=1 / bitrate=7000 / ratetol=1.0 / qcomp=0.60 / qpmin=10 / qpmax=69 / qpstep=4 / cplxblur=20.0 / qblur=0.5 / ip_ratio=1.40 / aq=1:0.80
    Language : English
    Audio #2
    ID : 2
    Format : AC-3
    Format/Info : Audio Coding 3
    Codec ID : A_AC3
    Duration : 2h 16mn
    Bit rate mode : Constant
    Bit rate : 384 Kbps
    Channel(s) : 6 channels
    Channel positions : Front: L C R, Surround: L R, LFE
    Sampling rate : 48.0 KHz
    Stream size : 375 MiB (4%)
    Title : AC3 384 kbs 5.1
    Language : Russian
    Audio #3
    ID : 3
    Format : DTS
    Format/Info : Digital Theater Systems
    Codec ID : A_DTS
    Duration : 2h 16mn
    Bit rate mode : Constant
    Bit rate : 1 510 Kbps
    Channel(s) : 6 channels
    Channel positions : Front: L C R, Surround: L R, LFE
    Sampling rate : 48.0 KHz
    Resolution : 24 bits
    Video delay : 11ms
    Stream size : 1.44 GiB (17%)
    Title : DTS 1510 kbs 5.1
    Language : English
    Text #4
    ID : 4
    Format : UTF-8
    Codec ID : S_TEXT/UTF8
    Codec ID/Info : UTF-8 Plain Text
    Title : Russian Forced
    Language : Russian
    Text #5
    ID : 5
    Format : UTF-8
    Codec ID : S_TEXT/UTF8
    Codec ID/Info : UTF-8 Plain Text
    Title : Russian Full
    Language : Russian
    Text #6
    ID : 6
    Format : UTF-8
    Codec ID : S_TEXT/UTF8
    Codec ID/Info : UTF-8 Plain Text
    Title : English Full
    Language : English

    Доп. информация:

    -Бюджет: $ 250 000 000 | Сборы в Мире: $ 1 038 179 520
    Рейтинг MPAA: детям до 13 лет просмотр не желателен- -

    Скриншоты:

    -
-

_________________
Показать сообщения:    

Текущее время: Сегодня 03:05

Часовой пояс: GMT



Вы не можете начинать темы
Вы не можете отвечать на сообщения
Вы не можете редактировать свои сообщения
Вы не можете удалять свои сообщения
Вы не можете голосовать в опросах
Вы не можете прикреплять файлы к сообщениям
Вы не можете скачивать файлы
Наши партнеры: интернет магазин Ивановского трикотажа textilla.ru