Важное объявление!
У Нас Все раздачи мультитрекерные, при нуле пиров в релизах, можете смело вставать на закачку!
 
Автор Сообщение

HUNTER

Стаж:
4 года 4 месяца
Сообщений:
56749

Репутация: 101

[+] [-]
Вне форума [Профиль] [ЛС]

Пирамммида
Страна: Россия
Жанр: Боевик, триллер, драма, криминал, биография
Год выпуска: 2010
Продолжительность: 01:49:45
Перевод: Не требуется
Cубтитры: нет
Оригинальная аудиодорожка: Русский
Режиссер: Эльдар Салаватов
В ролях: Алексей Серебряков, Петр Федоров, Фёдор Бондарчук, Юрий Цурило, Артем Михалков, Алексей Горбунов, Анна Михалкова, Екатерина Вилкова, Даниил Спиваковский, Игорь Яцко
Описание: Россия, начало 90-х. Страна в процессе болезненного перехода от сверхцентрализованной плановой экономики к рыночным отношениям. Простые люди, прежде жившие в условиях стабильности, растеряны и перепуганы. Все пришло в движение, ход истории разворачивается на глазах. Поворотные моменты истории всегда способствуют появлению всевозможных самозванцев и талантливых мошенников.
Сергей Мамонтов ищет, куда применить себя и свой интеллект. И находит. Мамонтов заказывает макет «ценной бумаги» с имперской вязью, богатым орнаментом, водяными знаками и собственным портретом в самом центре. Своим «деньгам» он назначает цену сам и продает их по принципу: сегодня всегда дороже, чем вчера.
Началась активная рекламная кампания. Чуть больше двух недель оказалось достаточно, чтобы народ уже выстроился в очереди за «мамонтовками», а Мамонтов стал едва ли не национальным героем. И могущественные банкиры, и властные структуры в растерянности — никто не имеет понятия, как прекратить этот беспредел — а в МММ уже набралось больше 10 миллионов вкладчиков… Заговоры, похищения людей, погони, заказные убийства. И немного любви.
Тип релиза: BDRip 720p
Контейнер: MKV
Видео: V_MPEG4/ISO/AVC / NTTSC / 1280x544[2.35:1] / 7 040 Kbps / 23.976 fps
Аудио: Русский / DTS / 6 channels / 48.0 KHz / 1 510 Kbps

Скриншоты

MI

General
Unique ID : 212801360293142108948891817689206206617 (0xA0180D1B68E6D4A09BFED6B1395BB099)
Complete name : C:\torr\Пирамммида 720р\Piramida_BDRip720p_MKV.mkv
Format : Matroska
Format version : Version 2
File size : 6.55 GiB
Duration : 1h 49mn
Overall bit rate : 8 544 Kbps
Movie name : Pirammmida.2011.Blu-ray.720p.DTS.x264-NiP
Encoded date : UTC 2011-06-15 14:47:26
Writing application : mkvmerge v4.8.0 ('I Got The...') сборка от May 24 2011 03:12:58
Writing library : libebml v1.2.0 + libmatroska v1.1.0
Video
ID : 1
Format : AVC
Format/Info : Advanced Video Codec
Format profile : High@L4.1
Format settings, CABAC : Yes
Format settings, ReFrames : 11 frames
Codec ID : V_MPEG4/ISO/AVC
Duration : 1h 49mn
Bit rate : 7 040 Kbps
Width : 1 280 pixels
Height : 544 pixels
Display aspect ratio : 2.35:1
Frame rate : 23.976 fps
Color space : YUV
Chroma subsampling : 4:2:0
Bit depth : 8 bits
Scan type : Progressive
Bits/(Pixel*Frame) : 0.422
Stream size : 5.26 GiB (80%)
Writing library : x264 core 115 r1995 c1e60b9
Encoding settings : cabac=1 / ref=11 / deblock=1:-3:-3 / analyse=0x3:0x113 / me=umh / subme=10 / psy=1 / psy_rd=1.10:0.00 / mixed_ref=1 / me_range=32 / chroma_me=1 / trellis=2 / 8x8dct=1 / cqm=0 / deadzone=21,11 / fast_pskip=0 / chroma_qp_offset=-2 / threads=12 / sliced_threads=0 / nr=0 / decimate=0 / interlaced=0 / bluray_compat=0 / constrained_intra=0 / bframes=12 / b_pyramid=2 / b_adapt=2 / b_bias=0 / direct=3 / weightb=1 / open_gop=0 / weightp=2 / keyint=250 / keyint_min=23 / scenecut=40 / intra_refresh=0 / rc_lookahead=60 / rc=2pass / mbtree=0 / bitrate=7040 / ratetol=1.0 / qcomp=0.60 / qpmin=0 / qpmax=69 / qpstep=4 / cplxblur=20.0 / qblur=0.5 / vbv_maxrate=50000 / vbv_bufsize=62500 / nal_hrd=none / ip_ratio=1.40 / pb_ratio=1.30 / aq=1:0.80
Language : Russian
Matrix coefficients : BT.709-5, BT.1361, IEC 61966-2-4 709, SMPTE RP177
Audio
ID : 2
Format : DTS
Format/Info : Digital Theater Systems
Codec ID : A_DTS
Duration : 1h 49mn
Bit rate mode : Constant
Bit rate : 1 510 Kbps
Channel(s) : 6 channels
Channel positions : Front: L C R, Side: L R, LFE
Sampling rate : 48.0 KHz
Bit depth : 24 bits
Compression mode : Lossy
Stream size : 1.16 GiB (18%)
Language : Russian
Menu
00:00:00.000 : :00:00:00.000
00:06:29.973 : :00:06:29.973
00:14:45.551 : :00:14:45.551
00:21:46.889 : :00:21:46.889
00:28:05.642 : :00:28:05.642
00:35:59.824 : :00:35:59.824
00:41:38.830 : :00:41:38.830
00:46:57.106 : :00:46:57.106
00:53:27.246 : :00:53:27.246
01:02:08.558 : :01:02:08.558
01:07:37.095 : :01:07:37.095
01:14:19.830 : :01:14:19.830
01:23:23.457 : :01:23:23.457
01:29:22.274 : :01:29:22.274
01:35:54.207 : :01:35:54.207
01:45:00.461 : :01:45:00.461

_________________
Показать сообщения:    

Текущее время: Сегодня 20:56

Часовой пояс: GMT



Вы не можете начинать темы
Вы не можете отвечать на сообщения
Вы не можете редактировать свои сообщения
Вы не можете удалять свои сообщения
Вы не можете голосовать в опросах
Вы не можете прикреплять файлы к сообщениям
Вы не можете скачивать файлы